Эбботт и Костелло летят на Марс / Abbott and Costello Go to Mars (Чарльз Ламонт / Charles Lamont) [1953, США, Фантастика, комедия, DVDRip] ЛО (Синица Сергей ака Rollinghead)

Reply to topic
 
Author Message

marsel84 ®

Gender: Male

Longevity: 2 years

Posts: 73

Post 05-May-2019 17:06

[Quote]

Эбботт и Костелло летят на Марс / Abbott and Costello Go to Mars
Страна: США
Жанр: Фантастика, комедия
Год выпуска: 1953
Продолжительность: 01:16:35
Перевод: Любительский (одноголосый) Синица Сергей ака Rollinghead
Режиссер: Чарльз Ламонт / Charles Lamont
В ролях: Бад Эбботт, Лу Костелло, Мэри Бланшар, Роберт Пейдж, Джо Кирк
Описание: Ученые секретной лаборатории под руководством доктора Уилсона изобретают ракету, которая может совершать межпланетные путешествия. Совершенно случайно два сотрудника, Лестер и Орвилл, оказываются внутри нее и отправляются в полет. Но оказываются они в…Новом Орлеане. Отправившись прогуляться, два незадачливых приятеля становятся свидетелями ограбления банка. Два преступника, Магси и Гарри, заставляют вернувшихся к ракете путешественников быстро улетать с Земли и направляться к Венере. Но на той планете обитают только женщины, а мужчин нет вообще, потому что они… запрещены.

Качество видео: DVDRip
Формат видео: MKV
Видео: x264, 2510 kb/s, 720x480, 23.976fps
Аудио: Русский Rollinghead (AC3, 2 ch, 192 Кбит/с)
Аудио 2: Английский (AC3, 2 ch, 192 Кбит/с)
Субтитры: Английские (SRT)

MediaInfo

Общее
Уникальный идентификатор : 5915550163514785435971605298335882520 (0x4734B241C2452BFE382E61C8EBE9D18)
Полное имя : Abbott.and.Costello.Go.to.Mars.1953.DVDRip.mkv
Формат : Matroska
Версия формата : Version 4 / Version 2
Размер файла : 1,55 Гбайт
Продолжительность : 1 ч. 16 м.
Общий поток : 2896 Кбит/сек
Дата кодирования : UTC 2019-02-06 02:15:04
Программа кодирования : mkvmerge v25.0.0 ('Prog Noir') 64-bit
Библиотека кодирования : libebml v1.3.6 + libmatroska v1.4.9
Видео
Идентификатор : 1
Формат : AVC
Формат/Информация : Advanced Video Codec
Профиль формата : High@L4
Настройки формата : CABAC / 16 Ref Frames
Параметр CABAC формата : Да
Параметр RefFrames формата : 16 кадров
Идентификатор кодека : V_MPEG4/ISO/AVC
Продолжительность : 1 ч. 16 м.
Битрейт : 2510 Кбит/сек
Ширина : 720 пикселей
Высота : 480 пикселей
Соотношение сторон : 4:3
Режим частоты кадров : Постоянный
Частота кадров : 23,976 (24000/1001) кадра/сек
Цветовое пространство : YUV
Субдискретизация насыщенности : 4:2:0
Битовая глубина : 8 бит
Тип развёртки : Прогрессивная
Бит/(Пиксели*Кадры) : 0.303
Размер потока : 1,34 Гбайт (87%)
Библиотека кодирования : x264 core 130 r2273 b3065e6
Настройки программы : cabac=1 / ref=16 / deblock=1:-3:-3 / analyse=0x3:0x133 / me=umh / subme=9 / psy=1 / psy_rd=1.00:0.00 / mixed_ref=1 / me_range=24 / chroma_me=1 / trellis=2 / 8x8dct=1 / cqm=0 / deadzone=21,11 / fast_pskip=0 / chroma_qp_offset=-2 / threads=3 / lookahead_threads=1 / sliced_threads=0 / nr=0 / decimate=1 / interlaced=0 / bluray_compat=0 / constrained_intra=0 / bframes=6 / b_pyramid=2 / b_adapt=2 / b_bias=0 / direct=3 / weightb=1 / open_gop=0 / weightp=2 / keyint=240 / keyint_min=24 / scenecut=40 / intra_refresh=0 / rc_lookahead=60 / rc=crf / mbtree=1 / crf=17.0 / qcomp=0.60 / qpmin=0 / qpmax=69 / qpstep=4 / ip_ratio=1.40 / aq=1:1.20
Язык : English
Default : Да
Forced : Нет
Цветовой диапазон : Limited
Основные цвета : BT.601 NTSC
Характеристики трансфера : BT.709
Коэффициенты матрицы : BT.601
Аудио #1
Идентификатор : 2
Формат : E-AC-3
Формат/Информация : Enhanced Audio Coding 3
Идентификатор кодека : A_EAC3
Продолжительность : 1 ч. 16 м.
Вид битрейта : Постоянный
Битрейт : 192 Кбит/сек
Каналы : 2 канала
Расположение каналов : Front: L R
Частота : 48,0 КГц
Частота кадров : 187,500 кадров/сек (256 SPF)
Метод сжатия : С потерями
Размер потока : 105 Мбайт (7%)
Заголовок : VO RollingHead
Язык : Russian
ServiceKind/String : Complete Main
Default : Да
Forced : Нет
Аудио #2
Идентификатор : 3
Формат : AC-3
Формат/Информация : Audio Coding 3
Идентификатор кодека : A_AC3
Продолжительность : 1 ч. 16 м.
Вид битрейта : Постоянный
Битрейт : 192 Кбит/сек
Каналы : 2 канала
Расположение каналов : Front: L R
Частота : 48,0 КГц
Частота кадров : 31,250 кадров/сек (1536 SPF)
Битовая глубина : 16 бит
Метод сжатия : С потерями
Размер потока : 105 Мбайт (7%)
Язык : English
ServiceKind/String : Complete Main
Default : Нет
Forced : Нет
Текст
Идентификатор : 4
Формат : UTF-8
Идентификатор кодека : S_TEXT/UTF8
Идентификатор кодека/Информация : UTF-8 Plain Text
Продолжительность : 1 ч. 14 м.
Битрейт : 71 бит/сек
ElementCount : 923
Размер потока : 38,9 Кбайт (0%)
Язык : English
Default : Да
Forced : Нет
Меню
00:00:00.000 : en:Chapter 1
00:02:59.762 : en:Chapter 2
00:05:59.942 : en:Chapter 3
00:09:00.122 : en:Chapter 4
00:11:59.802 : en:Chapter 5
00:14:59.982 : en:Chapter 6
00:18:00.037 : en:Chapter 7
00:20:59.967 : en:Chapter 8
00:23:59.896 : en:Chapter 9
00:27:00.076 : en:Chapter 10
00:29:59.756 : en:Chapter 11
00:32:59.936 : en:Chapter 12
00:36:00.116 : en:Chapter 13
00:38:59.795 : en:Chapter 14
00:41:59.975 : en:Chapter 15
00:45:00.155 : en:Chapter 16
00:47:59.835 : en:Chapter 17
00:51:00.015 : en:Chapter 18
00:53:59.694 : en:Chapter 19
00:57:00.375 : en:Chapter 20
01:00:00.054 : en:Chapter 21
01:02:59.734 : en:Chapter 22
01:05:59.914 : en:Chapter 23
01:09:00.094 : en:Chapter 24
01:11:59.773 : en:Chapter 25
01:14:59.953 : en:Chapter 26

Дополнительно

слоган «THEY'RE OUT OF THIS WORLD ON A MISGUIDED MISSLE!»
бюджет $754 000
Also Known As (AKA)
Abbott y Costello en Venus Chile / Mexico
Abbott y Costello van a Marte Argentina / Spain (imdb display title)
Deux nigauds chez Vénus Belgium (French title) / France
Abbott és Costello a Marsra megy Hungary (imdb display title)
Abbott e Costello Vão para Marte Portugal
Abbott i Costello leca na Marsa Poland
Abbott ja Costello matkalla Marsiin Finland
Allos gia ton Ari Greece (transliterated ISO-LATIN-1 title)
Iki Açikgöz Yildizlar Diyarinda Turkey (imdb display title) (Turkish title)
Olycksfåglarna flyger till Mars Sweden
On to Mars (undefined)
Rocket and Roll (undefined)
Twee snullen bij Venus Belgium (Flemish title)
Viaggio al pianeta Venere Italy

Интересные факты

Название фильма не соответствует действительности, так как герои на самом деле полетели на Венеру. На многих зарубежных постерах этот факт был отражен
Женщины с Венеры являлись участницами конкурса Мисс Вселенная
Мисс Швеция 1950 года, Анита Экберг, играет роль одного из охранников на планете Венера.

Скриншоты









Last edited by marsel84 on 2019-05-05 17:15; edited 1 time in total
[Profile] [PM]

CROM@G

Gender: Male

Longevity: 5 years

Posts: 3384

Location: Прибалтика

Post 05-May-2019 17:12 (after 5 minutes)

[Quote]

Ну вот . Поздравлю в первой раздачей
[Profile] [PM]

marsel84 ®

Gender: Male

Longevity: 2 years

Posts: 73

Post 05-May-2019 17:17 (after 5 minutes)

[Quote]

Надо бы предыдущую мертвую раздачу без облака удалить.
[Profile] [PM]

CROM@G

Gender: Male

Longevity: 5 years

Posts: 3384

Location: Прибалтика

Post 05-May-2019 17:21 (after 3 minutes)

[Quote]

Удалим Только ты времечко постой на раздаче
[Profile] [PM]
Display posts:    
Reply to topic

Current time is: 01-Oct 15:48

All times are UTC + 3



You cannot post new topics in this forum
You cannot reply to topics in this forum
You cannot edit your posts in this forum
You cannot delete your posts in this forum
You cannot vote in polls in this forum
You cannot attach files in this forum
You cannot download files in this forum