Пустота / Vacuity (Michael Matzur) [2012, США, короткометража. фантастика. драма, YouTubeDL-1080p] (АО : В.Белов)

Reply to topic
DL-List and Torrent activity
Size:  124 MB   |    Registered:  1 year 5 months   |    Completed:  0 times

Seeder not seen: 1 year 5 months

 
   
 
 
 
Author Message

Guest

Gender: Unknown

Longevity: 50 years

Post 05-May-2019 13:46

[Quote]

Пустота / Vacuity
Страна: США
Жанр: короткометража. фантастика. драма
Год выпуска: 2012
Продолжительность: 00:13:40
Перевод: Авторский (одноголосый) В.Белов
Режиссер: Michael Matzur
В ролях: Michael Steppe ... Alan Brahm
Chellie Newman ... Olivia Brahm (voice)
Troy William Dunn ... Flight (voice)
Leyla Kirschner ... Computer (voice)
Danny Donahue ... Other Crew #1 (voice)
Michael Matzur ... Other Crew #2 (voice)
Описание: Алану, застрявшему в шлюзе разрушающейся космической станции, нужно сделать сложный выбор: увидеть свою семью ещё раз или принести себя в жертву, чтобы спасти экипаж.
Качество видео: YouTubeDL-1080p
Формат: MKV
Видео: x264, 858 кбит/с, 1920x818, 23.976 к/с
Аудио 1: Русский АО (Белов) (AC3, 2 ch, 192 Кбит/с)
Аудио 2: Английский (AC3, 2 ch, 192 Кбит/с)
Работа над релизом:
Видеоряд найден на ютубе
Звуковой ряд - вконтакте
Работа по синхронизации - kosmoaelita



С русским переводом

Дополнительно

слоган «Failure is a choice»
бюджет $6 000

Знаете ли вы, что...

MediaInfo

Общее
Уникальный идентификатор : 195822826820145786307541289534754877990 (0x93521AC6DA39A5E69DEEA5BBDCDF7226)
Полное имя : N:\BD-DISC\Vacuity 2012.x264.YouTubeDL.1080p.kosmoaelita.Student.Short.Film.mkv
Формат : Matroska
Версия формата : Version 4
Размер файла : 124 Мбайт
Продолжительность : 13 м. 39 с.
Общий поток : 1268 Кбит/сек
Название фильма : Vacuity / 2012 / kosmoaelita
Дата кодирования : UTC 2019-05-05 10:34:28
Программа кодирования : mkvmerge v6.6.0 ('The Edge Of The In Between') built on Dec 1 2013 17:55:00
Библиотека кодирования : libebml v1.3.0 + libmatroska v1.4.1
Attachments : POSTER .jpg
Видео
Идентификатор : 1
Формат : AVC
Формат/Информация : Advanced Video Codec
Профиль формата : High@L4
Настройки формата : CABAC / 3 Ref Frames
Параметр CABAC формата : Да
Параметр RefFrames формата : 3 кадра
Идентификатор кодека : V_MPEG4/ISO/AVC
Продолжительность : 13 м. 39 с.
Битрейт : 858 Кбит/сек
Ширина : 1920 пикселей
Высота : 818 пикселей
Соотношение сторон : 2,35:1
Режим частоты кадров : Постоянный
Частота кадров : 23,976 (23976/1000) кадра/сек
Цветовое пространство : YUV
Субдискретизация насыщенности : 4:2:0
Битовая глубина : 8 бит
Тип развёртки : Прогрессивная
Бит/(Пиксели*Кадры) : 0.023
Размер потока : 83,9 Мбайт (68%)
Заголовок : http://kosmoaelita.com/viewtopic.php?t=2714
Default : Да
Forced : Нет
Цветовой диапазон : Limited
Основные цвета : BT.709
Характеристики трансфера : BT.709
Коэффициенты матрицы : BT.709
Аудио #1
Идентификатор : 2
Формат : AC-3
Формат/Информация : Audio Coding 3
Коммерческое название : Dolby Digital
Идентификатор кодека : A_AC3
Продолжительность : 13 м. 39 с.
Вид битрейта : Постоянный
Битрейт : 192 Кбит/сек
Каналы : 2 канала
Channel layout : L R
Частота : 48,0 КГц
Частота кадров : 31,250 кадров/сек (1536 SPF)
Битовая глубина : 16 бит
Метод сжатия : С потерями
Размер потока : 18,8 Мбайт (15%)
Заголовок : Русский АО (Вадим Белов)
Язык : Russian
ServiceKind/String : Complete Main
Default : Да
Forced : Нет
Аудио #2
Идентификатор : 3
Формат : AC-3
Формат/Информация : Audio Coding 3
Коммерческое название : Dolby Digital
Идентификатор кодека : A_AC3
Продолжительность : 13 м. 39 с.
Вид битрейта : Постоянный
Битрейт : 192 Кбит/сек
Каналы : 2 канала
Channel layout : L R
Частота : 48,0 КГц
Частота кадров : 31,250 кадров/сек (1536 SPF)
Битовая глубина : 16 бит
Метод сжатия : С потерями
Размер потока : 18,8 Мбайт (15%)
Язык : English
ServiceKind/String : Complete Main
Default : Нет
Forced : Нет

Скринлист

Файл дополнительно залит на ОБЛАКО
Vacuity 2012.x264.YouTubeDL.1080p.kosmoaelita.Student.Short.Film.mkv.torrent
Torrent: Registered [ 2019-05-05 13:46 ]

Download .torrent

Download

2 KB

Status: checked
Completed: 0 times
Size: 124 MB
 
[Profile] [PM]
Display posts:    
Reply to topic

Current time is: 25-Oct 14:11

All times are UTC + 3



You cannot post new topics in this forum
You cannot reply to topics in this forum
You cannot edit your posts in this forum
You cannot delete your posts in this forum
You cannot vote in polls in this forum
You cannot attach files in this forum
You can download files in this forum