Сумуру / Sumuru (Даррелл Рудт / Darrell Roodt) [2003, ЮАР, Канада, Великобритания, Германия, фантастика, фэнтези, приключения, DVDRip] ПМ (Централ Партнершип+Союз Видео)

Reply to topic
 
Author Message

Guest

Gender: Unknown

Longevity: 50 years

Post 28-Apr-2019 01:32

[Quote]

Сумуру / Sumuru
Страна: ЮАР, Канада, Великобритания, Германия, Do Productions Pty. Ltd.,Frame Werk Produktion GmbH & Co. KG, RTL2, Sumuru SA Pty. Ltd., Tandem Communications
Towers of London Productions
Жанр: фантастика, фэнтези, приключения
Год выпуска: 2003
Продолжительность: 01:30:16
Перевод: Профессиональный (многоголосый) Централ Партнершип+Союз Видео
Режиссер: Даррелл Рудт / Darrell Roodt
В ролях: Alexandra Kamp ... Sumuru
Michael Shanks ... Adam Wade
Simona Williams ... Taxan (as Simona Levin)
Terence Bridgett ... Jake Carpenter
David Lazarus ... Will
Casey B. Dolan ... Dove
Nadia Kretschmer ... Warrior Captain
Angelika ... Sumuru Bodyguard #1
Linzi Swanepoel ... Sumuru Bodyguard #2
Petra Rocher ... Taxan Bodyguard #1
Clair Evans ... Taxan Bodyguard #2
Michelle Bradshaw ... Taxan Warrior with Dog
Clive Scott ... Miner
Savanah ... Dog
Описание: В далеком будущем на одной из планет власть принадлежит прекрасным и воинственным женщинам, а мужчины используются только для продолжения рода и тяжелой физической работы. Однажды на планете разбивается корабль землян, прибывших со специальной миссией.
Качество видео: DVDRip
Формат: MKV
Видео: XviD, 1651 кбит/с, 720x432, 25 к/с
Аудио 1: Русский ПМ (AC3, 6 ch, 448 Кбит/с)
Аудио 2: Английский (AC3, 2 ch, 192 Кбит/с)
Работа над релизом:
Видеоряд найден в сети.
Синхр. русской дорожки - kosmoaelita



Пример русского перевода

Дополнительно

Also Known As (AKA)
(original title) Sumuru
Germany (DVD title) Sumuru - Schiffbruch auf dem Planeten der Frauen
Germany (TV title) Sumuru - Planet der Frauen
Greece (TV title) Sumuru
Hungary A kígyóistennő bolygója
Romania Frumusete diabolica
South Africa (English title) (complete title) Sax Rohmer's Sumuru

Отзывы

прекрасная и воинственная фантастика...))))))
--------------------
Забавный сплав "Грозовых Камней", "Гевндолин" и документального кино о буднях шахтёров.
Действительно, физика компьютерных моделей и зал управления рудообрабатывающего завода в роли кабины звездолета смотрятся комично, однако благодаря порочным глазам и старательной игре Симоны Левин фильм смотреть приятно.
Вот уж и не феминистическая точно фантастика, иначе концовка бы "...и они улетели на другую планету, на которой мужики и дальше продолжали из недр выкачивать нефть и извлекать уголь и железо, загаживая природу, а женщины и дальше продолжали сидеть в фитнесс-центрах и заниматься в клубах боевых искусств":D
Однако концовка и не пацанская,..
убивать Таксану сначала на высоковольтном щите, а потом выстрелив в пузо из карманного гранатомета уж слишком сурово в качестве наказания даже для женщины, полюбившей скармливать маленьких мальчиков животным. В таких случаях должен быть выписан перевоспитывающий поцелуй любви
-----------------------------------
Ну да , ну да.... ЗВ-1 возвращается.... и Мишка Шенкс тут как тут.... и у девочек на лбу чепуха , как и у джафа... ну ни разу не похоже.....
-----------------------------------
история и задумка наверно интересные, но вот не хватило им финансирования
писки, камни, заброшенный завод, шахтерские тоннели - на декорации совсем не потратились
костюмы тоже взяли на прокат в соседней лавке для карнавала
хоть девочек красивых набрали, за это спасибо

Рецензия

В этом фильме все скромно. Скромный сценарий, давно заезженная тема печального будущего человечества, не отличающийся чем-то особенным. Скромные малоизвестные актеры, пытающиеся в силу своих способностей как то играть свои роли. Нельзя сказать, что плохо, но и на хорошую игру не тянут. Очень скромно с компьютерной графикой даже для 2003 года. Декорации почти отсутствуют, съемки проходят или в карьере, между холмами, чтобы пейзаж не лез в кадр. Или на какой-то промышленной котельной или заброшенном заводе. Там где нужно показать сложное оборудование будущего, показывают старое промышленное оборудование 70х годов двадцатого века. Все в надежде, что его никто не узнает. Хотя с костюмами неплохо, доспехи выглядят очень симпатично. С эротикой очень скромно, даже единственная сцена, когда королева принимает душ, выглядит весьма целомудренно. С музыкальным сопровождением очень скромно, музыка в фильме едва уловимый восточный мотив. В целом разок глянуть можно.
3 из 10

MediaInfo

Общее
Уникальный идентификатор : 181948209170381093133261191730521730252 (0x88E1F34FD4F23D6DBCD1F66780186CCC)
Полное имя : N:\BD-DISC\Sumuru 2003.XviD.DVDRip.Rus.kosmoaelita.mkv
Формат : Matroska
Версия формата : Version 4
Размер файла : 1,47 Гбайт
Продолжительность : 1 ч. 30 м.
Общий поток : 2337 Кбит/сек
Дата кодирования : UTC 2019-04-27 19:06:31
Программа кодирования : mkvmerge v6.6.0 ('The Edge Of The In Between') built on Dec 1 2013 17:55:00
Библиотека кодирования : libebml v1.3.0 + libmatroska v1.4.1
Attachments : poster Sumuru.jpg
Видео
Идентификатор : 1
Формат : MPEG-4 Visual
Профиль формата : Advanced Simple@L5
Настройки формата : BVOP2
Параметр BVOP формата : 2
Параметр QPel формата : Нет
Параметр GMC формата : Без точки перехода
Параметр матрицы формата : Default (H.263)
Режим смешивания : Сжатый битовый поток
Идентификатор кодека : V_MS/VFW/FOURCC / XVID
Идентификатор кодека/Подсказка : XviD
Продолжительность : 1 ч. 30 м.
Битрейт : 1651 Кбит/сек
Ширина : 720 пикселей
Высота : 432 пикселя
Соотношение сторон : 5:3
Режим частоты кадров : Постоянный
Частота кадров : 25,000 кадров/сек
Цветовое пространство : YUV
Субдискретизация насыщенности : 4:2:0
Битовая глубина : 8 бит
Тип развёртки : Прогрессивная
Метод сжатия : С потерями
Бит/(Пиксели*Кадры) : 0.212
Размер потока : 1,04 Гбайт (71%)
Библиотека кодирования : XviD 1.1.2 (UTC 2006-11-01)
Default : Да
Forced : Нет
Аудио #1
Идентификатор : 2
Формат : AC-3
Формат/Информация : Audio Coding 3
Коммерческое название : Dolby Digital
Идентификатор кодека : A_AC3
Продолжительность : 1 ч. 30 м.
Вид битрейта : Постоянный
Битрейт : 448 Кбит/сек
Каналы : 6 каналов
Channel layout : L R C LFE Ls Rs
Частота : 48,0 КГц
Частота кадров : 31,250 кадров/сек (1536 SPF)
Битовая глубина : 16 бит
Метод сжатия : С потерями
Размер потока : 289 Мбайт (19%)
Заголовок : Русский ПМ (Централ Партнершип"+ ЗАО "Союз Видео)
Язык : Russian
ServiceKind/String : Complete Main
Default : Да
Forced : Нет
Аудио #2
Идентификатор : 3
Формат : AC-3
Формат/Информация : Audio Coding 3
Коммерческое название : Dolby Digital
Идентификатор кодека : A_AC3
Продолжительность : 1 ч. 30 м.
Вид битрейта : Постоянный
Битрейт : 192 Кбит/сек
Каналы : 2 канала
Channel layout : L R
Частота : 48,0 КГц
Частота кадров : 31,250 кадров/сек (1536 SPF)
Битовая глубина : 16 бит
Метод сжатия : С потерями
Размер потока : 124 Мбайт (8%)
Язык : English
ServiceKind/String : Complete Main
Default : Нет
Forced : Нет

Скриншоты


















Скринлист

Файл дополнительно залит на ОБЛАКО


Last edited by on 2019-04-30 18:27; edited 1 time in total
[Profile] [PM]

CROM@G

Gender: Male

Longevity: 5 years 1 month

Posts: 3416

Location: Прибалтика

Post 28-Apr-2019 08:20 (after 6 hours)

[Quote]

Ой-йо Какие сиськи .
[Profile] [PM]
Display posts:    
Reply to topic

Current time is: 26-Oct 09:23

All times are UTC + 3



You cannot post new topics in this forum
You cannot reply to topics in this forum
You cannot edit your posts in this forum
You cannot delete your posts in this forum
You cannot vote in polls in this forum
You cannot attach files in this forum
You cannot download files in this forum