Планета сражений / Планета войн / Battle Planet (Грег Арановитц / Greg Aronowitz) [2008, США, фантастика, BDRip-1080p] ЛД ()

Reply to topic
 
Author Message

kosmoaelita2 ®

Gender: Male

Longevity: 6 years 7 months

Posts: 722

Post 27-Apr-2019 21:35

[Quote]

Планета сражений / Планета войн / Battle Planet
Страна: США, CBS Europa, Night Light Films
Жанр: фантастика
Год выпуска: 2008
Продолжительность: 01:25:19
Перевод: Любительский (двухголосый)
Режиссер: Грег Арановитц / Greg Aronowitz
В ролях:
Zack Ward ... Jordan Strider
Monica May ... Jun'hee
Colleen Smith ... The Suit (voice)
Kevin Thompson ... Panhandler
John Duerler ... Gen. Wakgen
Stephen Settgast ... Cmdr. Brandon Thaine
Meg Cionni ... Shelly Walker
Kimberly Arland ... Lt. Myian
Erik Betts ... Harris
Todd Fournier ... Kane
Brea Grant ... Rasha
Dianne Kwon ... Mitch
Rhobye Wyatt ... Gen. Baenesh
Jason Charles Miller ... Strike Leader Jackson (as Jason Miller)
Traycee King ... 2nd Strike Leader
Описание:
В недалеком будущем, офицер спецназа нового мирового Альянса капитан Джордан Страйдер избран для выполнения особого сверхсекретного задания. Отправленный на заброшенную планету Терра 212, чтобы арестовать возможных предателей Альянса, он узнает о существовании ужасающего плана по уничтожению человечества, и теперь перед ним встает критический выбор: продолжить миссию согласно инструкциям, или принять новую миссию по спасению мира…
Качество видео: BDRip-1080p
Формат: MKV
Видео: x264, 9832 кбит/с, 1920x1072, 23.976 к/с
Аудио 1: Русский (AC3, 6 ch, 448 Кбит/с)
Аудио 2: Английский (DTS, 6 ch, 192 Кбит/с)
Субтитры : Португальские
Работа над релизом:
Видеоряд найден на rarbg2018.org
Синхронизация русской дорожки - kosmoaelita



Пример русского перевода

Дополнительно

Also Known As (AKA)
(original title) Battle Planet
France (TV title) Battle Planet
Germany Battle Planet - Kampf um Terra 219
Greece (DVD title) Olethrios planitis
USA (working title) The Suit

Отзывы

Муть конечно. Но, как говорится, на безрыбье... Тем более, что фильмов гораздо хуже - тьма. На один раз пойдёт.
ЗЫ разглядывать сисъки у человеколягушки - это да, это - пять.
-----------------------
Конечно, это трешак. Характерные признаки налицо: карлик в танковом шлемаке в роли пилота непонятной конструкции, симпатичные девки с пушками. Актеры себя игрой особо не утруждают, но и не лажают по-страшному, как у Уве Болла.
В плюсах - довольно оригинальный сюжет (истории с неснимаемым скафандром я не припомню), хороший постер и первый кадр, полное отсутсвие давления на мозги. Какого-то откровенного тупняка я не заметил (это вам не канадская бодяга), явных ляпов тоже нет, просто съемочная группа мало старалась.
И отдельный плюс за революцию в оружейном деле - помповый бластер ))
-------------------------------------

Рецензия

Ни рыба ни мясо: Планета коварного скафандра.
«Планета сражений» добротная низкоколорийная фантастика для старшеклассников, не развращенных более бюджетными проектами. Не имея в кармане кучи денег создатели делали все своими руками: скафандр, маски прешельцев, оружие. Кое-что получилось, а что-то нет.
Главная идея фильма граничит с модными у подростков мыслями возникающими в их возрасте, что человек живет в системе и им постоянно руководят и обманывают, а если надо то пожертвуют ради своих целей. Правда в «Планете сражений» это показанно немного размыто из-за вопроса: сможет ли человеческая раса сосуществовать с инопланетной? В принципе все правильно, но по детски наивно.
Кому нравится игра Зака Уорда (это тот кто был чуваком в «Постале» Уве Болла) может посмотреть на мучения актера, бродящего весь фильм в скафандре. И посочувствовать людям в душных масках пришельцев. Кроме попытки прогнуться и сделать достойный b-movie, без голых девок и мочилова, ничего замечено не было.
3 из 10
========================
приключения электроники
Случайно посмотрел этот фильм. В титрах надо указывать крупными буквами «для старшего школьного возраста». Видимо снимался для каникул американских тинейжеров.
Главная тема картины — 80 минут гл. герой капитан Джордан Страйдер пререкается со своим скафандром и не может его снять. В злоключениях на вражеской планете ему помогает существо — женщина с головой то ли рыбы, то ли птицы, оказавшаяся генералом союзных войск. Это Вам не сказка — это американская ненаучная фантастика.
Четыре из десяти ставлю лишь за трудность игры актеров в скафандре и под чудовищным гримом, видимо пришлось серьезно в прямом смысле попотеть(это касается лишь главных героев, остальные не тянут даже на любительский драмкружок), а также за использование светофильтров при съемке ландшафтов оператором. И еще за некое послевкусие, появившееся после просмотра ленты, хотя не ясно чем оно могло быть вызвано. Может быть, Вы разберетесь?
4 из 10
=======================
Ошибка в годе выпуска
Ужасный фильм.. вернее отличная сказка для детей (и даже не для старшего школьного возраста). Подумать только, в настоящее время имея под рукой самые современные технологии компьютерной графики снимать такое.
Конечно, актёрская игра очень важна (которой тут тоже нет), но как-то в ФАНТАСТИКЕ без фантастики… не смотрится.
Итог… я думаю такой фильм сняли в 1988 году, просто долго валялся на полке

MediaInfo

Общее
Уникальный идентификатор : 217825572762778007122157681427924721239 (0xA3DFADE828ACD0129C5F531A11291E57)
Полное имя : N:\BD-DISC\Battle.Planet.2008.1080p.BluRay.x264-FHD\Battle Planet 2008.x264.BDRip.1080p.Rus.kosmoaelita.mkv
Формат : Matroska
Версия формата : Version 4
Размер файла : 7,02 Гбайт
Продолжительность : 1 ч. 25 м.
Общий поток : 11,8 Мбит/сек
Название фильма : Battle Planet / 2008 / kosmoaelita
Дата кодирования : UTC 2019-04-27 10:22:32
Программа кодирования : mkvmerge v6.6.0 ('The Edge Of The In Between') built on Dec 1 2013 17:55:00
Библиотека кодирования : libebml v1.3.0 + libmatroska v1.4.1
Attachments : poster.jpg
Видео
Идентификатор : 1
Формат : AVC
Формат/Информация : Advanced Video Codec
Профиль формата : High@L3.1
Настройки формата : CABAC / 4 Ref Frames
Параметр CABAC формата : Да
Параметр RefFrames формата : 4 кадра
Идентификатор кодека : V_MPEG4/ISO/AVC
Продолжительность : 1 ч. 25 м.
Битрейт : 9832 Кбит/сек
Ширина : 1920 пикселей
Высота : 1072 пикселя
Соотношение сторон : 16:9
Режим частоты кадров : Постоянный
Частота кадров : 23,976 (24000/1001) кадра/сек
Цветовое пространство : YUV
Субдискретизация насыщенности : 4:2:0
Битовая глубина : 8 бит
Тип развёртки : Прогрессивная
Бит/(Пиксели*Кадры) : 0.199
Размер потока : 5,71 Гбайт (81%)
Заголовок : http://kosmoaelita.com/viewtopic.php?t=2709
Библиотека кодирования : x264 core 114 r1924 08d04a4
Настройки программы : cabac=1 / ref=4 / deblock=1:0:0 / analyse=0x3:0x2 / me=umh / subme=7 / psy=1 / psy_rd=1.00:0.00 / mixed_ref=1 / me_range=16 / chroma_me=1 / trellis=1 / 8x8dct=1 / cqm=0 / deadzone=21,11 / fast_pskip=0 / chroma_qp_offset=-2 / threads=3 / sliced_threads=0 / nr=0 / decimate=1 / interlaced=0 / constrained_intra=0 / bframes=3 / b_pyramid=2 / b_adapt=1 / b_bias=0 / direct=3 / weightb=1 / open_gop=0 / weightp=0 / keyint=250 / keyint_min=23 / scenecut=40 / intra_refresh=0 / rc=2pass / mbtree=0 / bitrate=9832 / ratetol=1.0 / qcomp=0.60 / qpmin=0 / qpmax=69 / qpstep=4 / cplxblur=20.0 / qblur=0.5 / ip_ratio=1.40 / pb_ratio=1.30 / aq=1:1.00
Язык : English
Default : Да
Forced : Нет
Аудио #1
Идентификатор : 2
Формат : AC-3
Формат/Информация : Audio Coding 3
Коммерческое название : Dolby Digital
Идентификатор кодека : A_AC3
Продолжительность : 1 ч. 25 м.
Вид битрейта : Постоянный
Битрейт : 448 Кбит/сек
Каналы : 6 каналов
Channel layout : L R C LFE Ls Rs
Частота : 48,0 КГц
Частота кадров : 31,250 кадров/сек (1536 SPF)
Битовая глубина : 16 бит
Метод сжатия : С потерями
Размер потока : 273 Мбайт (4%)
Заголовок : Русский ЛД ()
Язык : Russian
ServiceKind/String : Complete Main
Default : Да
Forced : Нет
Аудио #2
Идентификатор : 3
Формат : DTS
Формат/Информация : Digital Theater Systems
Идентификатор кодека : A_DTS
Продолжительность : 1 ч. 25 м.
Вид битрейта : Постоянный
Битрейт : 1509 Кбит/сек
Каналы : 6 каналов
Channel layout : C L R Ls Rs LFE
Частота : 48,0 КГц
Частота кадров : 93,750 кадра/сек (512 SPF)
Битовая глубина : 24 бит
Метод сжатия : С потерями
Размер потока : 921 Мбайт (13%)
Язык : English
Default : Нет
Forced : Нет
Текст
Идентификатор : 4
Формат : UTF-8
Идентификатор кодека : S_TEXT/UTF8
Идентификатор кодека/Информация : UTF-8 Plain Text
Язык : Portuguese
Default : Нет
Forced : Нет
Меню
00:00:00.000 : :00:00:00.000
00:04:28.101 : :00:04:28.101
00:08:45.024 : :00:08:45.024
00:14:10.266 : :00:14:10.266
00:24:43.357 : :00:24:43.357
00:34:23.979 : :00:34:23.979
00:40:59.415 : :00:40:59.415
00:45:46.786 : :00:45:46.786
00:52:36.278 : :00:52:36.278
00:58:06.149 : :00:58:06.149
01:04:30.700 : :01:04:30.700
01:08:31.482 : :01:08:31.482

Скриншоты













Скринлист

Файл дополнительно залит на ОБЛАКО
[Profile] [PM]

Трамвай-фильм

Gender: Male

Longevity: 4 years 9 months

Posts: 1454

Location: Россия

Post 28-Apr-2019 15:26 (after 17 hours)

[Quote]

Какая визуальная топорщина!
[Profile] [PM]
Display posts:    
Reply to topic

Current time is: 26-May 10:46

All times are UTC + 3



You cannot post new topics in this forum
You cannot reply to topics in this forum
You cannot edit your posts in this forum
You cannot delete your posts in this forum
You cannot vote in polls in this forum
You cannot attach files in this forum
You cannot download files in this forum