Ночной обзор / Night Sights (Мэтт Томпсон / Matt Thompson) [2011, США, фантастика, драма, семейный, BDRip-1080p] ПМ (по заказу Creative Arts Media)

Reply to topic
 
Author Message

kosmoaelita2 ®

Gender: Male

Longevity: 6 years 9 months

Posts: 743

Post 24-Apr-2019 00:51

[Quote]

Ночной обзор / Night Sights
Страна: США, Envoy Pictures, Medal Lion Entertainment
Жанр: фантастика, драма, семейный
Год выпуска: 2011
Продолжительность: 01:28:58
Перевод: Профессиональный (многоголосый) по заказу Creative Arts Media
Режиссер: Мэтт Томпсон / Matt Thompson
В ролях:
Jonathon Lamer ... Rich Hadley
Beth Berlin ... Grace (as Beth Pennington)
Tom Virtue ... Secretary Striling
Lawrence Long ... Andrew
Theresa Layne ... Jamie Hadley
Peter Buitenhek ... Palatier
Jerry Monroe ... Lou Demoine
Robin Blaze ... Jermaine
Charles Maze ... Mr. Gibbons
Criston Mitchel ... Mr. Whales
Rest of cast listed alphabetically:
Aaron Landon Bornstein ... General Hobbs
Todd Conant ... Radio Man
Dave Rivas ... Mission Control Countdown
Glen Roberts ... Mission Control Analyst
Arnold Vargas ... Mission Control Analyst
Описание: В центре сюжета фильма находится мужчина, который переживает самое страшное, что может случиться с родителем – смерть единственного ребенка. Герою не помогает не время, не утешение близких и даже психотерапия не дает никаких результатов. Однажды безутешный отец бесцельно сидел в интернете и случайным образом наткнулся на сообщество людей, которые, так же как и он потеряли близких. Сначала герой фильма подумал, что их группа была создана для поддержки друг друга, но потом узнал, что целью этих людей является помощь потерянным душам покинуть чистилище и отправиться в рай.
Качество видео: BDRip-1080p
Формат: MKV
Видео: x264, 8346 кбит/с, 1920x1080, 23.976 к/с
Аудио 1: Русский ПМ (AC3, 2 ch, 224 Кбит/с)
Аудио 2: Английский (AC3, 2 ch, 448 Кбит/с)
Субтитры : Английские, испанские
Работа над релизом:
Видеоряд найден на rarbg2018.org
Русская дорожка найдена на ivi.ru
Синхронизация русской дорожки - kosmoaelita



Пример русского перевода

Дополнительно

слоган «What do you see at night?»
бюджет $250 000
Also Known As (AKA)
(original title) Night Sights
UK (DVD title) The Void

Отзывы

вроде сама мысль интересная... но вот снято каким-то студентом с истеричными актерами... именно истеричными по жизни... выдержал 40 минут... наверно рекорд...
--------------
Низкобюджетный, нудный

MediaInfo

Общее
Уникальный идентификатор : 201004175668755029786968120515149316873 (0x9737FEFF8A452AAE9B820A15C9664309)
Полное имя : N:\BD-DISC\Night.Sights.2011.1080p.BluRay.X264-iNVANDRAREN\Night Sights 2011.x264.BDRip.1080p.Rus.kosmoaelita.mkv
Формат : Matroska
Версия формата : Version 4
Размер файла : 5,60 Гбайт
Продолжительность : 1 ч. 28 м.
Общий поток : 9017 Кбит/сек
Название фильма : Night Sights / 2011 / kosmoaelita
Дата кодирования : UTC 2019-04-23 21:14:05
Программа кодирования : mkvmerge v6.6.0 ('The Edge Of The In Between') built on Dec 1 2013 17:55:00
Библиотека кодирования : libebml v1.3.0 + libmatroska v1.4.1
Attachments : poster t.jpg
Видео
Идентификатор : 1
Формат : AVC
Формат/Информация : Advanced Video Codec
Профиль формата : High@L4.1
Настройки формата : CABAC / 4 Ref Frames
Параметр CABAC формата : Да
Параметр RefFrames формата : 4 кадра
Идентификатор кодека : V_MPEG4/ISO/AVC
Продолжительность : 1 ч. 28 м.
Битрейт : 8346 Кбит/сек
Ширина : 1920 пикселей
Высота : 1080 пикселей
Соотношение сторон : 16:9
Режим частоты кадров : Постоянный
Частота кадров : 23,976 (24000/1001) кадра/сек
Цветовое пространство : YUV
Субдискретизация насыщенности : 4:2:0
Битовая глубина : 8 бит
Тип развёртки : Прогрессивная
Бит/(Пиксели*Кадры) : 0.168
Размер потока : 5,07 Гбайт (91%)
Заголовок : http://kosmoaelita.com/viewtopic.php?t=2708
Библиотека кодирования : x264 core 142 r2479kMod dd79a61
Настройки программы : cabac=1 / ref=4 / deblock=1:0:0 / analyse=0x3:0x133 / me=umh / subme=7 / psy=1 / fade_compensate=0.00 / psy_rd=1.00:0.00 / mixed_ref=1 / me_range=16 / chroma_me=1 / trellis=1 / 8x8dct=1 / cqm=0 / deadzone=21,11 / fast_pskip=0 / chroma_qp_offset=-2 / threads=12 / lookahead_threads=2 / sliced_threads=0 / nr=0 / decimate=1 / interlaced=0 / bluray_compat=0 / constrained_intra=0 / fgo=0 / bframes=3 / b_pyramid=2 / b_adapt=2 / b_bias=0 / direct=3 / weightb=1 / open_gop=0 / weightp=2 / keyint=250 / keyint_min=23 / scenecut=40 / intra_refresh=0 / rc_lookahead=50 / rc=2pass / mbtree=1 / bitrate=8346 / ratetol=1.0 / qcomp=0.60 / qpmin=0 / qpmax=69 / qpstep=4 / cplxblur=20.0 / qblur=0.5 / ip_ratio=1.40 / aq=1:1.00
Язык : English
Default : Нет
Forced : Нет
Аудио #1
Идентификатор : 2
Формат : AC-3
Формат/Информация : Audio Coding 3
Коммерческое название : Dolby Digital
Идентификатор кодека : A_AC3
Продолжительность : 1 ч. 28 м.
Вид битрейта : Постоянный
Битрейт : 224 Кбит/сек
Каналы : 2 канала
Channel layout : L R
Частота : 48,0 КГц
Частота кадров : 31,250 кадров/сек (1536 SPF)
Битовая глубина : 16 бит
Метод сжатия : С потерями
Размер потока : 143 Мбайт (2%)
Заголовок : Русский ПМ (по заказу Creative Arts Media)
Язык : Russian
ServiceKind/String : Complete Main
Default : Да
Forced : Нет
Аудио #2
Идентификатор : 3
Формат : AC-3
Формат/Информация : Audio Coding 3
Коммерческое название : Dolby Digital
Идентификатор кодека : A_AC3
Продолжительность : 1 ч. 28 м.
Вид битрейта : Постоянный
Битрейт : 448 Кбит/сек
Каналы : 2 канала
Channel layout : L R
Частота : 48,0 КГц
Частота кадров : 31,250 кадров/сек (1536 SPF)
Битовая глубина : 16 бит
Метод сжатия : С потерями
Размер потока : 285 Мбайт (5%)
Язык : English
ServiceKind/String : Complete Main
Default : Нет
Forced : Нет
Текст #1
Идентификатор : 4
Формат : UTF-8
Идентификатор кодека : S_TEXT/UTF8
Идентификатор кодека/Информация : UTF-8 Plain Text
Язык : English
Default : Нет
Forced : Нет
Текст #2
Идентификатор : 5
Формат : UTF-8
Идентификатор кодека : S_TEXT/UTF8
Идентификатор кодека/Информация : UTF-8 Plain Text
Язык : Spanish
Default : Нет
Forced : Нет

Скриншоты








Скринлист

Файл дополнительно залит на ОБЛАКО
[Profile] [PM]
Display posts:    
Reply to topic

Current time is: 20-Jul 15:20

All times are UTC + 3



You cannot post new topics in this forum
You cannot reply to topics in this forum
You cannot edit your posts in this forum
You cannot delete your posts in this forum
You cannot vote in polls in this forum
You cannot attach files in this forum
You cannot download files in this forum