Страх перед будущим / Future Fear / Epidemia (Льюис Баумандер / Lewis Baumander) [1997, Канада, США, фантастика, боевик, DVDRip, WEBRip-720p] АО (С. Визгунов)

Reply to topic
 
Author Message

kosmoaelita2 ®

Gender: Male

Longevity: 6 years 11 months

Posts: 743

Post 23-Apr-2019 01:31

[Quote]

Страх перед будущим / Future Fear / Epidemia
Страна: Канада, США, Aliceco Inc., Producers Network Associates
Жанр: фантастика, боевик
Год выпуска: 1997
Продолжительность: 01:35:06
Перевод: Авторский (одноголосый) С. Визгунов
Режиссер: Льюис Баумандер / Lewis Baumander
В ролях:
Jeff Wincott ... Dr. John Denniel
Maria Ford ... Anna Denniel
Stacy Keach ... General Wallace
Shawn Thompson ... Robert
Kristie Ropiejko ... Yvette
Michael Seater ... Young Denniel
Danielle Dasilva ... Young Anna
Rob Tinkler ... Young Wallace (as Robert Tinkler)
Stephanie Jones ... Denniel's Mother
Michael Berger ... Denniel's Father
Matt Hummel ... Soldier #1
Joseph D. Clark ... Soldier #2 (as Joseph Clark)
Robert Harrison O'Carroll ... Soldier #3
Plato Fountidakis ... Soldier #4
Jules Delorme ... Viral Man #1
Описание: По мнению авторов этого фильма, недалекое будущее готовит человечеству такие сюрпризы, которые не приснятся даже в самом кошмарном сне. За короткий срок чуть ли не все население Земли оказывается поражено таинственным вирусом, посланным из глубокого космоса и разъедающим человеческую плоть.
Волею судьбы на его пути становятся ученый-генетик Джон Денниел с женой. Однако, найти противоядие совсем непросто: на пути героев встает зловещий генерал Уоллес, одержимый жаждой мирового господства…

Качество видео: DVDRip
Формат: MKV
Видео: x264, 1835 кбит/с, 704x528, 25 к/с, crf=16
Аудио 1: Русский (AC3, 2 ch, 384 Кбит/с)
Аудио 2: Английский (AC3, 2 ch, 192 Кбит/с)
==================================
Качество видео: WEBRip-720p
Формат: MKV
Видео: x264, 2421 кбит/с, 1280x720, 23,976 к/с
Аудио 1: Русский (AC3, 2 ch, 192 Кбит/с)
Аудио 2: Английский (AC3, 2 ch, 192 Кбит/с)
===================================
Работа над релизом:
Рип с PAL DVD5 - kosmoaelita
WEBRip найден на rarbg2018.org
Синхронизация русской дорожки - kosmoaelita



Пример русского перевода

Дополнительно

бюджет CAD 2 100 000
Also Known As (AKA)
(original title) Future Fear
France (cable TV title) Futurophobie
France (alternative title) Epidemia
Germany (video title) Space Virus
Greece (video title) I kivotos
Hungary Vírusharc
Spain (Catalan title) Terror futur
Spain Terror futuro
Съёмки: 28 октября 1996 — 22 ноября 1996
Формат копии: 35 mm
Формат съёмок: 35 mm
Изображение: цветное
Язык: английский

Отзывы

Лог кодирования

PLATFORM
------------------------------
OS Code: Microsoft Windows NT 5.1.2600 Service Pack 4
OS Name: Microsoft Windows XP Service Pack 4 (x32)
Framework: 2.0.50727.3082 (v4.0)
AviSynth: AviSynth 2.60, build:Sep 28 2013 [15:09:12]
CPU Info: AMD Phenom(tm) II X4 945 Processor (~3149), 4 core(s)
RAM Total: 3325Mb
Language: RUS (1251, ",")
SystemDrive: C:
XviD4PSP
------------------------------
Version: 5.10.331.0
Created: 05.10.2014 11:44:56
AppPath: C:\Program Files\XviD4PSP 5
TempPath: H:\TEMP
FILES
------------------------------
VTS_01_1_001.VOB >
VTS_01_1_001.mkv
TASK
------------------------------
Format: MKV
Duration: 01:33:18:400 (139960)
VideoDecoder: MPEG2Source
Resolution: 720x576 > 704x528
Aspect: 1.2950 > 1.3333
VCodecPreset: Custom
VEncodingMode: TwoPass
VideoCodec: MPEG2 > x264
VideoBitrate: 5391 > 1835
Quality: 0.520 > 0.197
Framerate: 25.000
SourceType: HYBRID_PROGRESSIVE_INTERLACED
FieldOrder: TFF
Deinterlacer: QTGMC
AEncodingPreset: Copy
AudioCodec: AC3
AudioBitrate: 384
Samplerate: 48000
Channels: 2
SCRIPT
------------------------------
Import("C:\Program Files\XviD4PSP 5\dlls\AviSynth\functions\AudioFunctions.avs")
Import("C:\Program Files\XviD4PSP 5\dlls\AviSynth\functions\VideoFunctions.avs")
LoadPlugin("C:\Program Files\XviD4PSP 5\apps\DGMPGDec\DGDecode.dll")
LoadPlugin("C:\Program Files\XviD4PSP 5\dlls\AviSynth\plugins\NicAudio.dll")
LoadPlugin("C:\Program Files\XviD4PSP 5\dlls\AviSynth\plugins\TIVTC.dll")
Import("C:\Program Files\XviD4PSP 5\dlls\AviSynth\plugins\QTGMC.avs")
LoadPlugin("C:\Program Files\XviD4PSP 5\dlls\AviSynth\plugins\mvtools2.dll")
LoadPlugin("C:\Program Files\XviD4PSP 5\dlls\AviSynth\plugins\RemoveGrainSSE2.dll")
LoadPlugin("C:\Program Files\XviD4PSP 5\dlls\AviSynth\plugins\RepairSSE2.dll")
LoadPlugin("C:\Program Files\XviD4PSP 5\dlls\AviSynth\plugins\mt_masktools-26.dll")
LoadPlugin("C:\Program Files\XviD4PSP 5\dlls\AviSynth\plugins\fft3dfilter.dll")
#LoadPlugin("C:\Program Files\XviD4PSP 5\dlls\AviSynth\plugins\VerticalCleaner.dll")
LoadPlugin("C:\Program Files\XviD4PSP 5\dlls\AviSynth\plugins\nnedi3.dll")
#LoadPlugin("C:\Program Files\XviD4PSP 5\dlls\AviSynth\plugins\EEDI3.dll")
#LoadPlugin("C:\Program Files\XviD4PSP 5\dlls\AviSynth\plugins\EEDI2.dll")
LoadCPlugin("C:\Program Files\XviD4PSP 5\dlls\AviSynth\plugins\yadif.dll")
#LoadPlugin("C:\Program Files\XviD4PSP 5\dlls\AviSynth\plugins\TDeint.dll")
#LoadPlugin("C:\Program Files\XviD4PSP 5\dlls\AviSynth\plugins\AddGrainC.dll")
video = MPEG2Source("H:\TEMP\VTS_01_1_001.index\VTS_01_1_001.d2v", cpu=0, info=3)
audio = NicAC3Source("H:\TEMP\VTS_01_1_001.index\VTS_01_1_001 T80 2_0ch 384Kbps DELAY 0ms.ac3")
AudioDub(video, audio)
ConvertToYV12(interlaced = true)
QTGMC(Preset="Faster", Sharpness=1.0, FPSDivisor=2)
###[FILTERING]###
###[FILTERING]###
Crop(16, 4, -12, -2)
Spline64Resize(704, 528)
Используем готовый файл: H:\TEMP\VTS_01_1_001.index\VTS_01_1_001 T80 2_0ch 384Kbps DELAY 0ms.ac3
VIDEO ENCODING
------------------------------
Encoding video to: H:\TEMP\5134.264
x264 1835kbps 704x528 25.000fps (139960 frames)
...first pass...
x264.exe: --pass 1 --bitrate 1835 --preset veryslow --tune film --level 4.1 --ref 8 --aq-strength 0.9 --deblock -3:-3 --psy-rd 0.99:0.14 --qcomp 0.65 --partitions p8x8,b8x8,i4x4,p4x4 --subme 11 --rc-lookahead 80 --keyint 210 --ipratio 1.25 --pbratio 1.17 --colorprim bt470m --transfer bt470m --colormatrix bt470bg --sar 1:1 --stats "H:\TEMP\5134.log" --output NUL "H:\TEMP\5134.avs"
avs [info]: 704x528p 1:1 @ 25/1 fps (cfr)
x264 [info]: using SAR=1/1
x264 [info]: using cpu capabilities: MMX2 SSE2Fast SSEMisalign LZCNT
x264 [info]: profile Main, level 4.1
x264 [info]: frame I:988 Avg QP:14.77 size: 35902
x264 [info]: frame P:28177 Avg QP:16.82 size: 18281
x264 [info]: frame B:110795 Avg QP:18.16 size: 6656
x264 [info]: consecutive B-frames: 1.4% 1.4% 3.8% 17.4% 21.6% 45.8% 7.1% 1.2% 0.3%
x264 [info]: mb I I16..4: 33.4% 0.0% 66.6%
x264 [info]: mb P I16..4: 43.8% 0.0% 0.0% P16..4: 55.1% 0.0% 0.0% 0.0% 0.0% skip: 1.0%
x264 [info]: mb B I16..4: 9.9% 0.0% 0.0% B16..8: 33.8% 0.0% 0.0% direct:36.4% skip:19.9% L0:32.5% L1:36.6% BI:30.9%
x264 [info]: final ratefactor: 16.77
x264 [info]: direct mvs spatial:100.0% temporal:0.0%
x264 [info]: coded y,uvDC,uvAC intra: 69.4% 71.7% 40.5% inter: 34.4% 40.5% 1.1%
x264 [info]: i16 v,h,dc,p: 31% 23% 32% 13%
x264 [info]: i4 v,h,dc,ddl,ddr,vr,hd,vl,hu: 24% 21% 19% 3% 8% 6% 6% 6% 7%
x264 [info]: i8c dc,h,v,p: 50% 22% 22% 7%
x264 [info]: Weighted P-Frames: Y:10.4% UV:6.4%
x264 [info]: kb/s:1840.59
x264 [total]: encoded 139960 frames, 16.09 fps, 1840.59 kb/s
...last pass...
x264.exe: --pass 2 --bitrate 1835 --preset veryslow --tune film --level 4.1 --ref 8 --aq-strength 0.9 --deblock -3:-3 --psy-rd 0.99:0.14 --qcomp 0.65 --partitions p8x8,b8x8,i4x4,p4x4 --subme 11 --rc-lookahead 80 --keyint 210 --ipratio 1.25 --pbratio 1.17 --colorprim bt470m --transfer bt470m --colormatrix bt470bg --sar 1:1 --stats "H:\TEMP\5134.log" --output "H:\TEMP\5134.264" "H:\TEMP\5134.avs"
avs [info]: 704x528p 1:1 @ 25/1 fps (cfr)
x264 [info]: using SAR=1/1
x264 [info]: using cpu capabilities: MMX2 SSE2Fast SSEMisalign LZCNT
x264 [info]: profile High, level 4.1
x264 [info]: frame I:988 Avg QP:16.46 size: 33442
x264 [info]: frame P:28177 Avg QP:18.08 size: 18076
x264 [info]: frame B:110795 Avg QP:19.61 size: 6696
x264 [info]: consecutive B-frames: 1.4% 1.4% 3.8% 17.4% 21.6% 45.8% 7.1% 1.2% 0.3%
x264 [info]: mb I I16..4: 4.6% 89.0% 6.4%
x264 [info]: mb P I16..4: 2.1% 0.0% 5.0% P16..4: 35.6% 43.9% 11.9% 1.0% 0.1% skip: 0.3%
x264 [info]: mb B I16..4: 0.1% 0.0% 0.3% B16..8: 36.4% 20.2% 2.3% direct:11.5% skip:29.1% L0:44.2% L1:42.6% BI:13.2%
x264 [info]: 8x8 transform intra:25.4% inter:68.6%
x264 [info]: direct mvs spatial:96.2% temporal:3.8%
x264 [info]: coded y,uvDC,uvAC intra: 90.9% 90.4% 63.9% inter: 37.6% 43.9% 3.1%
x264 [info]: i16 v,h,dc,p: 12% 15% 3% 70%
x264 [info]: i8 v,h,dc,ddl,ddr,vr,hd,vl,hu: 12% 10% 6% 9% 11% 12% 12% 13% 15%
x264 [info]: i4 v,h,dc,ddl,ddr,vr,hd,vl,hu: 7% 12% 3% 8% 13% 12% 15% 12% 17%
x264 [info]: i8c dc,h,v,p: 32% 27% 19% 23%
x264 [info]: Weighted P-Frames: Y:10.4% UV:6.4%
x264 [info]: ref P L0: 36.8% 7.7% 21.2% 8.9% 8.7% 6.1% 6.3% 3.8% 0.5% 0.0%
x264 [info]: ref B L0: 74.6% 12.7% 5.1% 3.1% 2.3% 1.5% 0.8%
x264 [info]: ref B L1: 94.9% 5.1%
x264 [info]: kb/s:1835.13
x264 [total]: encoded 139960 frames, 8.88 fps, 1835.13 kb/s
MUXING
------------------------------
Video file: H:\TEMP\5134.264
Audio file: H:\TEMP\VTS_01_1_001.index\VTS_01_1_001 T80 2_0ch 384Kbps DELAY 0ms.ac3
Muxing to: N:\BD-DISC\Страх перед будущим\VTS_01_1_001.mkv
mkvmerge.exe: -o "N:\BD-DISC\Страх перед будущим\VTS_01_1_001.mkv" --engage no_cue_duration --engage no_cue_relative_position --default-duration 0:25.000fps -d 0 -A -S "H:\TEMP\5134.264" -a 0 --sync 0:0 -D -S --no-chapters "H:\TEMP\VTS_01_1_001.index\VTS_01_1_001 T80 2_0ch 384Kbps DELAY 0ms.ac3" --output-charset UTF-8
TIME
------------------------------
Общее время кодирования: 6 hour 49 min 15 sec
Файл получился на: 1482.17 mb

MediaInfo DVDRip

Общее
Уникальный идентификатор : 204273889360903273725448885857850272734 (0x99ADB854635D5F7695DEB6D613B0ABDE)
Полное имя : F:\Future Fear 1997.x264.DVDRip.Rus.kosmoaelita.mkv
Формат : Matroska
Версия формата : Version 4
Размер файла : 1,59 Гбайт
Продолжительность : 1 ч. 35 м.
Общий поток : 2392 Кбит/сек
Название фильма : Future Fear / 1997 / rip from PAL DVD5 by kosmoaelita (2019-03-18), crf=16.77
Дата кодирования : UTC 2019-06-16 22:52:55
Программа кодирования : mkvmerge v6.6.0 ('The Edge Of The In Between') built on Dec 1 2013 17:55:00
Библиотека кодирования : libebml v1.3.0 + libmatroska v1.4.1
Attachments : poster.jpg / VTS_01_1_001.mkv.encoding.log
Видео
Идентификатор : 1
Формат : AVC
Формат/Информация : Advanced Video Codec
Профиль формата : High@L4.1
Настройки формата : CABAC / 8 Ref Frames
Параметр CABAC формата : Да
Параметр RefFrames формата : 8 кадров
Идентификатор кодека : V_MPEG4/ISO/AVC
Продолжительность : 1 ч. 35 м.
Битрейт : 1835 Кбит/сек
Ширина : 704 пикселя
Высота : 528 пикселей
Соотношение сторон : 4:3
Режим частоты кадров : Постоянный
Частота кадров : 25,000 кадров/сек
Цветовое пространство : YUV
Субдискретизация насыщенности : 4:2:0
Битовая глубина : 8 бит
Тип развёртки : Прогрессивная
Бит/(Пиксели*Кадры) : 0.197
Размер потока : 1,18 Гбайт (74%)
Заголовок : http://kosmoaelita.com/viewtopic.php?t=2707
Библиотека кодирования : x264 core 130 r2273 b3065e6
Настройки программы : cabac=1 / ref=8 / deblock=1:-3:-3 / analyse=0x3:0x131 / me=umh / subme=11 / psy=1 / psy_rd=0.99:0.14 / mixed_ref=1 / me_range=24 / chroma_me=1 / trellis=2 / 8x8dct=1 / cqm=0 / deadzone=21,11 / fast_pskip=1 / chroma_qp_offset=-3 / threads=6 / lookahead_threads=1 / sliced_threads=0 / nr=0 / decimate=1 / interlaced=0 / bluray_compat=0 / constrained_intra=0 / bframes=8 / b_pyramid=2 / b_adapt=2 / b_bias=0 / direct=3 / weightb=1 / open_gop=0 / weightp=2 / keyint=210 / keyint_min=21 / scenecut=40 / intra_refresh=0 / rc_lookahead=80 / rc=2pass / mbtree=1 / bitrate=1835 / ratetol=1.0 / qcomp=0.65 / qpmin=0 / qpmax=69 / qpstep=4 / cplxblur=20.0 / qblur=0.5 / ip_ratio=1.25 / aq=1:0.90
Default : Да
Forced : Нет
Цветовой диапазон : Limited
Основные цвета : BT.470 System M
Характеристики трансфера : BT.470 System M
Коэффициенты матрицы : BT.470 System B/G
Statistics Tags Issue : mkvmerge v7.8.0 ('River Man') 32bit built on Mar 27 2015 16:18:02 2019-03-18 07:28:49 / mkvmerge v6.6.0 ('The Edge Of The In Between') built on Dec 1 2013 17:55:00 2019-06-16 22:52:55
FromStats_BitRate : 1835131
FromStats_Duration : 01:33:18.400000000
FromStats_FrameCount : 139960
FromStats_StreamSize : 1284225237
Аудио #1
Идентификатор : 2
Формат : AC-3
Формат/Информация : Audio Coding 3
Коммерческое название : Dolby Digital
Идентификатор кодека : A_AC3
Продолжительность : 1 ч. 35 м.
Вид битрейта : Постоянный
Битрейт : 384 Кбит/сек
Каналы : 2 канала
Channel layout : L R
Частота : 48,0 КГц
Частота кадров : 31,250 кадров/сек (1536 SPF)
Битовая глубина : 16 бит
Метод сжатия : С потерями
Размер потока : 261 Мбайт (16%)
Заголовок : Русский АО (С.Визгунов)
Язык : Russian
ServiceKind/String : Complete Main
Default : Да
Forced : Нет
Аудио #2
Идентификатор : 3
Формат : AC-3
Формат/Информация : Audio Coding 3
Коммерческое название : Dolby Digital
Идентификатор кодека : A_AC3
Продолжительность : 1 ч. 35 м.
Вид битрейта : Постоянный
Битрейт : 192 Кбит/сек
Каналы : 2 канала
Channel layout : L R
Частота : 48,0 КГц
Частота кадров : 31,250 кадров/сек (1536 SPF)
Битовая глубина : 16 бит
Метод сжатия : С потерями
Размер потока : 131 Мбайт (8%)
Язык : English
ServiceKind/String : Complete Main
Default : Нет
Forced : Нет
Меню
00:10:40.280 : en:00:10:40.280
00:21:22.280 : en:00:21:22.280
00:31:41.480 : en:00:31:41.480
00:42:04.280 : en:00:42:04.280
00:52:28.760 : en:00:52:28.760
01:02:43.760 : en:01:02:43.760
01:13:16.560 : en:01:13:16.560
01:23:51.960 : en:01:23:51.960

MediaInfo WEBRip-720p

Общее
Уникальный идентификатор : 170981254583253567581099639405556144283 (0x80A1CAB4430CDB4D8672A267DD22189B)
Полное имя : F:\Future Fear 1997.x264.WEBRip.720p.Rus.kosmoaelita.mkv
Формат : Matroska
Версия формата : Version 4
Размер файла : 1,91 Гбайт
Продолжительность : 1 ч. 35 м.
Общий поток : 2862 Кбит/сек
Название фильма : Future Fear / 1997 / kosmoaelita
Дата кодирования : UTC 2019-06-17 04:24:01
Программа кодирования : mkvmerge v6.6.0 ('The Edge Of The In Between') built on Dec 1 2013 17:55:00
Библиотека кодирования : libebml v1.3.0 + libmatroska v1.4.1
Attachments : poster.jpg
Видео
Идентификатор : 1
Формат : AVC
Формат/Информация : Advanced Video Codec
Профиль формата : High@L4
Настройки формата : CABAC / 4 Ref Frames
Параметр CABAC формата : Да
Параметр RefFrames формата : 4 кадра
Идентификатор кодека : V_MPEG4/ISO/AVC
Продолжительность : 1 ч. 35 м.
Битрейт : 2421 Кбит/сек
Ширина : 1280 пикселей
Высота : 720 пикселей
Соотношение сторон : 16:9
Режим частоты кадров : Постоянный
Частота кадров : 23,976 (24000/1001) кадра/сек
Цветовое пространство : YUV
Субдискретизация насыщенности : 4:2:0
Битовая глубина : 8 бит
Тип развёртки : Прогрессивная
Бит/(Пиксели*Кадры) : 0.110
Размер потока : 1,61 Гбайт (85%)
Заголовок : http://kosmoaelita.com/viewtopic.php?t=2707
Библиотека кодирования : x264 core 148 r2643 5c65704
Настройки программы : cabac=1 / ref=4 / deblock=1:0:0 / analyse=0x3:0x113 / me=umh / subme=8 / psy=1 / psy_rd=1.00:0.00 / mixed_ref=1 / me_range=16 / chroma_me=1 / trellis=0 / 8x8dct=1 / cqm=0 / deadzone=21,11 / fast_pskip=1 / chroma_qp_offset=-2 / threads=1 / lookahead_threads=1 / sliced_threads=0 / nr=0 / decimate=1 / interlaced=0 / bluray_compat=0 / constrained_intra=0 / bframes=4 / b_pyramid=2 / b_adapt=2 / b_bias=0 / direct=3 / weightb=1 / open_gop=0 / weightp=2 / keyint=96 / keyint_min=48 / scenecut=40 / intra_refresh=0 / rc_lookahead=40 / rc=crf / mbtree=1 / crf=1.0 / qcomp=0.60 / qpmin=0 / qpmax=69 / qpstep=4 / vbv_maxrate=2400 / vbv_bufsize=2400 / crf_max=0.0 / nal_hrd=none / filler=0 / ip_ratio=1.41 / aq=1:1.00
Default : Да
Forced : Нет
Аудио #1
Идентификатор : 2
Формат : AC-3
Формат/Информация : Audio Coding 3
Коммерческое название : Dolby Digital
Идентификатор кодека : A_AC3
Продолжительность : 1 ч. 35 м.
Вид битрейта : Постоянный
Битрейт : 192 Кбит/сек
Каналы : 2 канала
Channel layout : L R
Частота : 48,0 КГц
Частота кадров : 31,250 кадров/сек (1536 SPF)
Битовая глубина : 16 бит
Метод сжатия : С потерями
Задержка видео : -83 мс.
Размер потока : 131 Мбайт (7%)
Заголовок : Русский АО (С.Визгунов)
Язык : Russian
ServiceKind/String : Complete Main
Default : Да
Forced : Нет
Аудио #2
Идентификатор : 3
Формат : AC-3
Формат/Информация : Audio Coding 3
Коммерческое название : Dolby Digital
Идентификатор кодека : A_AC3
Продолжительность : 1 ч. 35 м.
Вид битрейта : Постоянный
Битрейт : 192 Кбит/сек
Каналы : 2 канала
Channel layout : L R
Частота : 48,0 КГц
Частота кадров : 31,250 кадров/сек (1536 SPF)
Битовая глубина : 16 бит
Метод сжатия : С потерями
Задержка видео : -83 мс.
Размер потока : 131 Мбайт (7%)
Язык : English
ServiceKind/String : Complete Main
Default : Нет
Forced : Нет

Скриншоты DVDRip

















Скриншоты WEBRip-720p












Скринлист DVDRip

Скринлист WEBRip-720p

Файл дополнительно залит на ОБЛАКО


Last edited by kosmoaelita2 on 2019-06-17 19:01; edited 1 time in total
[Profile] [PM]

kosmoaelita2 ®

Gender: Male

Longevity: 6 years 11 months

Posts: 743

Post 17-Jun-2019 18:54 (after 1 month 24 days)

[Quote]

На облако добавлен WEBRip-720p
DVDRip vs. WEBRip

[Profile] [PM]
Display posts:    
Reply to topic

Current time is: 18-Sep 08:54

All times are UTC + 3



You cannot post new topics in this forum
You cannot reply to topics in this forum
You cannot edit your posts in this forum
You cannot delete your posts in this forum
You cannot vote in polls in this forum
You cannot attach files in this forum
You cannot download files in this forum