Госпиталь ужасов / Больница ужасов / Horror Hospital (Энтони Бэлч / Antony Balch) [1973, Великобритания, ужасы, фантастика, BDRip-1080p] ЛО (Horror Maker) + СТ (kosmoaelita-karlivanovich)

Reply to topic
 
Author Message

Guest

Gender: Unknown

Longevity: 49 years

Post 21-Apr-2019 09:48

[Quote]

Госпиталь ужасов / Больница ужасов / Horror Hospital
Страна: Великобритания, Noteworthy Films
Жанр: ужасы, фантастика, комедия
Год выпуска: 1973
Продолжительность: 01:30:24
Перевод 1: ЛО (Horror Maker)
Перевод 2: Субтитры kosmoaelita-karlivanovich
Режиссер: Энтони Бэлч / Antony Balch
В ролях:
Michael Gough ... Dr. Christian Storm
Robin Askwith ... Jason Jones
Vanessa Shaw ... Judy Peters
Ellen Pollock ... Aunt Harris
Dennis Price ... Mr. Pollack
Skip Martin ... Frederick
Kurt Christian ... Abraham
Barbara Wendy ... Millie
Kenneth Benda ... Carter
Martin Grace ... Bike Boy
Colin Skeaping ... Bike Boy
George Herbert ... Laboratory Assistant
James Boris IV ... 'Mystic' Rock Group (as James IV Boris)
Allan 'The River' Hudson ... 'Mystic' Rock Group (as Allan {The River} Hudson)
Simon Lust ... 'Mystic' Rock Group
Описание: Рок-музыкант Джейсон решает отправиться из Лондона отдохнуть в небольшой пансионат. По дороге он знакомится с девушкой Джуди, которая также направляется в пансионат навестить свою тетю. Прибыв на место, Джейсон и Джуди с удивлением обнаруживают, что заведение больше смахивает на психиатрическую клинику. Руководит ею доктор Сторм, а помогает ему карлик. Пациентами клиники являются хиппи, которые становятся подопытным материалом для жутких экспериментов доктора…
Релиз

Качество видео: BDRip-1080p
Формат: MKV
Видео: x264, 9620 кбит/с, 1792x1080, 24 к/с
Аудио 1: Русский (Dolby AC3 48000Hz stereo 192kbps)
Аудио 2: Английский (Dolby AC3 48000Hz stereo 192kbps)
Субтитры : Русские ()
Работа над релизом:
Релиз kosmoaelita.
Видеоряд найден на cinemageddon.net
Перевод на слух с англ. по заказу kosmoaelita - karlivanovich
Русская озвучка - Horror Maker
Спонсоры русской озвучки - Darth_47, snorrinort, killer snowman, PonchoUsatiy, Steve Salmon, AlexNever, pompilius



Пример русского субтитрового перевода

Дополнительно

слоган «The Operation is a Success ... When the Patient Dies»
бюджет £50 000
Also Known As (AKA)
(original title) Horror Hospital
Brazil Hospital do Horror
France (cable TV title) Horror Hospital
France La griffe de Frankenstein
Hungary Horror kórház
Italy Diario proibito di un collegio femminile
Soviet Union (Russian title) Госпиталь ужасов
Spain Horror en el hospital
Sweden Skräcksjukhuset
Turkey (Turkish title) Insan kasabi
USA (alternative title) Computer Killers
USA (alternative title) Death Ward #13
USA (alternative title) Eastworld
West Germany (trailer title) Dr.Frankensteins Horrorklinik
West Germany Frankensteins Horror-Klinik
West Germany (video box title) Mad House
(video title) Doctor Bloodbath
Съёмки: 16 октября 1972 — 11 ноября 1972
Формат изображения: 1.85 : 1
Формат копии: 35 mm
Формат съёмок: 35 mm
Изображение: цветное
Язык: английский

Отзывы

MediaInfo

General
Unique ID : 185491028911899882438420346939595761643 (0x8B8C45CFA524B61594A23E00E45F27EB)
Complete name : Horror.Hospital.1973.BDRip.1080p.Rus.Eng.kosmoaelita.com.mkv
Format : Matroska
Format version : Version 1
File size : 6.32 GiB
Duration : 1 h 30 min
Overall bit rate : 10.0 Mb/s
Encoded date : UTC 2019-09-18 16:10:30
Writing application : mkvmerge v2.4.2 ('Oh My God') built on Jan 18 2009 17:30:28
Writing library : libebml v0.7.7 + libmatroska v0.8.1
Video
ID : 1
Format : AVC
Format/Info : Advanced Video Codec
Format profile : High@L4.1
Format settings : CABAC / 4 Ref Frames
Format settings, CABAC : Yes
Format settings, Reference fra : 4 frames
Codec ID : V_MPEG4/ISO/AVC
Duration : 1 h 30 min
Bit rate : 9 620 kb/s
Width : 1 792 pixels
Height : 1 080 pixels
Display aspect ratio : 5:3
Frame rate mode : Constant
Frame rate : 24.000 FPS
Color space : YUV
Chroma subsampling : 4:2:0
Bit depth : 8 bits
Scan type : Progressive
Bits/(Pixel*Frame) : 0.207
Stream size : 5.95 GiB (94%)
Title : Horror Hospital 1973 (kosmoaelita.com)
Writing library : x264 core 148 r2597 e86f3a1
Encoding settings : cabac=1 / ref=4 / deblock=1:0:0 / analyse=0x3:0x113 / me=umh / subme=8 / psy=1 / psy_rd=1.00:0.00 / mixed_ref=1 / me_range=16 / chroma_me=1 / trellis=1 / 8x8dct=1 / cqm=0 / deadzone=21,11 / fast_pskip=1 / chroma_qp_offset=-2 / threads=12 / lookahead_threads=2 / sliced_threads=0 / nr=0 / decimate=1 / interlaced=0 / bluray_compat=0 / constrained_intra=0 / bframes=3 / b_pyramid=2 / b_adapt=2 / b_bias=0 / direct=3 / weightb=1 / open_gop=0 / weightp=2 / keyint=240 / keyint_min=24 / scenecut=40 / intra_refresh=0 / rc_lookahead=50 / rc=2pass / mbtree=1 / bitrate=9620 / ratetol=1.0 / qcomp=0.60 / qpmin=0 / qpmax=69 / qpstep=4 / cplxblur=20.0 / qblur=0.5 / vbv_maxrate=62500 / vbv_bufsize=78125 / nal_hrd=none / filler=0 / ip_ratio=1.40 / aq=1:1.00
Language : English
Default : Yes
Forced : No
Statistics Tags Issue : mkvmerge v8.2.0 ('World of Adventure') 32bit 2015-09-03 06:08:29 / mkvmerge v2.4.2 ('Oh My God') built on Jan 18 2009 17:30:28 2019-09-18 16:10:30
FromStats_BitRate : 9619932
FromStats_Duration : 01:30:23.625000000
FromStats_FrameCount : 130167
FromStats_StreamSize : 6521863043
Audio #1
ID : 2
Format : AC-3
Format/Info : Audio Coding 3
Commercial name : Dolby Digital
Codec ID : A_AC3
Duration : 1 h 30 min
Bit rate mode : Constant
Bit rate : 192 kb/s
Channel(s) : 2 channels
Channel layout : L R
Sampling rate : 48.0 kHz
Frame rate : 31.250 FPS (1536 SPF)
Bit depth : 16 bits
Compression mode : Lossy
Stream size : 124 MiB (2%)
Title : Русский (Horror Maker для kosmoaelita.com)
Language : Russian
Service kind : Complete Main
Default : Yes
Forced : No
Audio #2
ID : 3
Format : AC-3
Format/Info : Audio Coding 3
Commercial name : Dolby Digital
Codec ID : A_AC3
Duration : 1 h 30 min
Bit rate mode : Constant
Bit rate : 192 kb/s
Channel(s) : 2 channels
Channel layout : L R
Sampling rate : 48.0 kHz
Frame rate : 31.250 FPS (1536 SPF)
Bit depth : 16 bits
Compression mode : Lossy
Stream size : 124 MiB (2%)
Language : English
Service kind : Complete Main
Default : No
Forced : No
Text
ID : 4
Format : UTF-8
Codec ID : S_TEXT/UTF8
Codec ID/Info : UTF-8 Plain Text
Title : Русский (karlivanovich для kosmoaelita.com)
Language : Russian
Default : No
Forced : No

Пример субтитров

2
00:01:00,329 --> 00:01:03,500
Давай, сработай
поаккуратнее, Фредерик.
3
00:01:03,696 --> 00:01:06,591
Машину только утром мыли.
4
00:01:18,493 --> 00:01:20,493
Пора, Фредерик.
5
00:01:42,013 --> 00:01:46,289
Будут знать, как убегать от нас.
6
00:01:46,639 --> 00:01:49,105
Чтобы этого больше
не повторялось, Фредерик.
-----------------
560
01:28:07,483 --> 01:28:09,649
В самом деле, Джейсон,
ну и шутки у тебя!
561
01:28:09,770 --> 01:28:13,255
Не будь такой дурочкой.
А ты выше нос.
562
01:28:13,419 --> 01:28:16,344
Тебе не кажется, что это
надо передать в полицию?
563
01:28:16,412 --> 01:28:21,044
В эту, настолько фантастическую
историю никто не поверит.

Скриншоты















Скринлист

[Profile] [PM]

Darth_47

Gender: Male

Longevity: 5 months 16 days

Posts: 254

Post 19-Sep-2019 20:48 (after 4 months 28 days)

[Quote]

Раздача восстановлена и обновлена. Добавлена русская озвучка от Horror Maker.
[Profile] [PM]
Quick Reply

Name:

            
Heads necessary to send messages to enable JavaScript
Display posts:    
Reply to topic

Current time is: 22-Oct 19:52

All times are UTC + 3



You cannot post new topics in this forum
You can reply to topics in this forum
You cannot edit your posts in this forum
You cannot delete your posts in this forum
You cannot vote in polls in this forum
You cannot attach files in this forum
You cannot download files in this forum