Загадка летающей тарелки / The Flying Saucer Mystery (Дональд Кихо) [1952, США, документальный, короткометражный, DVDRip] АО (Трамвай-фильм)

Reply to topic
DL-List and Torrent activity
Size:  181 MB   |    Registered:  5 months 4 days   |    Completed:  0 times

Seeder not seen: 5 months 1 day

 
   
 
 
 
Author Message

Трамвай-фильм ®

Gender: Male

Longevity: 5 years 1 month

Posts: 1533

Location: Россия

Post 07-Apr-2019 11:48

[Quote]

Загадка летающей тарелки / The Flying Saucer Mystery
Страна: США
Жанр: документальный, короткометражный
Год выпуска: 1952
Продолжительность: 00:12:31
Перевод: Авторский (одноголосый) Трамвай-фильм
Режиссер: Дональд Кихо
В ролях: Дональд Кихо, Гэбриаэль Линк, Оскар Линк, Огест Робертс, Джеймс Стенфорд, Ноэль Скотт и Френк Скалли
Описание: Ранний документальный фильм пытающийся раскрыть загадку феномена НЛО.
This is a very early documentary about UFOs. Filmed just three years after the first UFO sightings and the famed "Roswell Incident", it's made up mostly of unrelated stock footage and screams "cheap". And, whether or not you enjoy this is dependent completely on whether you think UFOs are real. I have always felt that if aliens were looking for intelligent life, why would they travels all the way across the galaxy to see us?!?! If you think they're real, you probably will like the film despite its many, many deficiencies. If you are unsure or are convinced it's all a hoax, nothing in this film will change your opinion in the least. It just doesn't offer anything for proof and its silly "scientific" explanation is laughable. You can do much better than watching this.

Доп. информация: Качество звука не фонтан, в США вроде бы как в Общественном достоянии
Качество видео: DVDRip
Формат видео: MKV
Видео: x264, 704x528, 23,976fps, 1600kbps
Аудио 1: AC3, 48000Hz, stereo, 192kbps
Аудио 2: AC3, 48000Hz, stereo, 192kbps
Работа над релизом:
Рип с ДВД с синемагеддона, частичная стабилизация видеоряда - kosmoaelita
Авторский перевод на слух с англ. - Трамвай-фильм


Пример русского перевода

MediaInfo

Общее
Уникальный идентификатор : 247320736735101018010395603794187958460 (0xBA103DC42C26F435A87E2182D686B8BC)
Полное имя : \sci-fi trash-o-rama\sci-fi trash-o-rama - Creature of Destruction - The Fliying Saucer Mystery\VIDEO_TS\Новая папка\The Flying Saucer Mystery 1952.x264.VHSRip.Rus.kosmoaelita.mkv
Формат : Matroska
Версия формата : Version 4
Размер файла : 181 Мбайт
Продолжительность : 12 м. 31 с.
Общий поток : 2018 Кбит/сек
Название фильма : Загадка летающей тарелки / The Flying Saucer Mystery / 1952 / rip by kosmoaelita
Дата кодирования : UTC 2019-04-14 16:09:39
Программа кодирования : mkvmerge v6.6.0 ('The Edge Of The In Between') built on Dec 1 2013 17:55:00
Библиотека кодирования : libebml v1.3.0 + libmatroska v1.4.1
Attachments : VTS_01_1_001.mkv.encoding.log / poster.jpg
Видео
Идентификатор : 1
Формат : AVC
Формат/Информация : Advanced Video Codec
Профиль формата : High@L4.1
Настройки формата : CABAC / 8 Ref Frames
Параметр CABAC формата : Да
Параметр RefFrames формата : 8 кадров
Идентификатор кодека : V_MPEG4/ISO/AVC
Продолжительность : 12 м. 31 с.
Битрейт : 1600 Кбит/сек
Ширина : 704 пикселя
Высота : 528 пикселей
Соотношение сторон : 4:3
Режим частоты кадров : Постоянный
Частота кадров : 23,976 (24000/1001) кадра/сек
Цветовое пространство : YUV
Субдискретизация насыщенности : 4:2:0
Битовая глубина : 8 бит
Тип развёртки : Прогрессивная
Бит/(Пиксели*Кадры) : 0.180
Размер потока : 140 Мбайт (77%)
Заголовок : http://kosmoaelita.com/viewtopic.php?t=2697
Библиотека кодирования : x264 core 130 r2273 b3065e6
Настройки программы : cabac=1 / ref=8 / deblock=1:-2:-2 / analyse=0x3:0x131 / me=umh / subme=10 / psy=1 / psy_rd=0.99:0.14 / mixed_ref=1 / me_range=24 / chroma_me=1 / trellis=2 / 8x8dct=1 / cqm=0 / deadzone=21,11 / fast_pskip=1 / chroma_qp_offset=-3 / threads=6 / lookahead_threads=1 / sliced_threads=0 / nr=0 / decimate=1 / interlaced=0 / bluray_compat=0 / constrained_intra=0 / bframes=8 / b_pyramid=2 / b_adapt=2 / b_bias=0 / direct=3 / weightb=1 / open_gop=0 / weightp=2 / keyint=210 / keyint_min=21 / scenecut=40 / intra_refresh=0 / rc_lookahead=80 / rc=2pass / mbtree=1 / bitrate=1600 / ratetol=1.0 / qcomp=0.65 / qpmin=0 / qpmax=69 / qpstep=4 / cplxblur=20.0 / qblur=0.5 / ip_ratio=1.25 / aq=1:0.90
Default : Да
Forced : Нет
Цветовой диапазон : Limited
Основные цвета : BT.601 NTSC
Характеристики трансфера : BT.601
Коэффициенты матрицы : BT.601
Statistics Tags Issue : mkvmerge v7.8.0 ('River Man') 32bit built on Mar 27 2015 16:18:02 2019-04-14 16:06:48 / mkvmerge v6.6.0 ('The Edge Of The In Between') built on Dec 1 2013 17:55:00 2019-04-14 16:09:39
FromStats_BitRate : 1599571
FromStats_Duration : 00:12:31.376000000
FromStats_FrameCount : 18015
FromStats_StreamSize : 150234930
Аудио #1
Идентификатор : 2
Формат : AC-3
Формат/Информация : Audio Coding 3
Коммерческое название : Dolby Digital
Идентификатор кодека : A_AC3
Продолжительность : 12 м. 31 с.
Вид битрейта : Постоянный
Битрейт : 192 Кбит/сек
Каналы : 2 канала
Channel layout : L R
Частота : 48,0 КГц
Частота кадров : 31,250 кадров/сек (1536 SPF)
Битовая глубина : 16 бит
Метод сжатия : С потерями
Размер потока : 17,2 Мбайт (10%)
Заголовок : Русский АО (Трамвай-фильм)
Язык : Russian
ServiceKind/String : Complete Main
Default : Да
Forced : Нет
Аудио #2
Идентификатор : 3
Формат : AC-3
Формат/Информация : Audio Coding 3
Коммерческое название : Dolby Digital
Идентификатор кодека : A_AC3
Продолжительность : 12 м. 31 с.
Вид битрейта : Постоянный
Битрейт : 224 Кбит/сек
Каналы : 2 канала
Channel layout : L R
Частота : 48,0 КГц
Частота кадров : 31,250 кадров/сек (1536 SPF)
Битовая глубина : 16 бит
Метод сжатия : С потерями
Размер потока : 20,1 Мбайт (11%)
ServiceKind/String : Complete Main
Default : Нет
Forced : Нет
Statistics Tags Issue : mkvmerge v7.8.0 ('River Man') 32bit built on Mar 27 2015 16:18:02 2019-04-14 16:06:48 / mkvmerge v6.6.0 ('The Edge Of The In Between') built on Dec 1 2013 17:55:00 2019-04-14 16:09:39
FromStats_BitRate : 224000
FromStats_Duration : 00:12:31.360000000
FromStats_FrameCount : 23480
FromStats_StreamSize : 21038080

Скриншоты








Скринлист

Файл дополнительно залит на ОБЛАКО
The Flying Saucer Mystery 1952.x264.VHSRip.Rus.kosmoaelita.mkv.torrent
Torrent: Registered [ 2019-04-14 19:18 ]

Download .torrent

Download

2 KB

Status: checked
Completed: 0 times
Size: 181 MB
 
[Profile] [PM]

kosmoaelita2

Gender: Male

Longevity: 6 years 11 months

Posts: 743

Post 14-Apr-2019 19:25 (after 7 days)

[Quote]

Перезалито с более качественым видеорядом
http://screenshotcomparison.com/comparison/133929

[Profile] [PM]

Трамвай-фильм ®

Gender: Male

Longevity: 5 years 1 month

Posts: 1533

Location: Россия

Post 14-Apr-2019 20:21 (after 55 minutes)

[Quote]

Оу, спасибо. Форменное DVD
[Profile] [PM]
Quick Reply

Name:

            
Heads necessary to send messages to enable JavaScript
Display posts:    
Reply to topic

Current time is: 19-Sep 00:55

All times are UTC + 3



You can post new topics in this forum
You can reply to topics in this forum
You cannot edit your posts in this forum
You cannot delete your posts in this forum
You cannot vote in polls in this forum
You cannot attach files in this forum
You can download files in this forum