Космос: 1999 (Сезон 2) / Space 1999

Reply to topic
 
Author Message

croMAG ®

Gender: Male

Longevity: 3 years 7 months

Posts: 2059

Location: Прибалтика

Post 02-Apr-2019 13:08

[Quote]

Космос: 1999 (Сезон 2) / Space 1999
Страна: Великобритания, Италия. Group 3 Ltd., Incorporated Television Company (ITC), Radiotelevisione Ital
Жанр: Фантастика, драма, приключения
Год выпуска: 1976-1977
Продолжительность: 24 х ~ 00:50:00
Перевод 1: Любительский (одноголосый) Русский ЛО (fiendover (Виктор Рутилов))
Перевод 2: Субтитры (Н.Лопатинская, sasha20072007). Автор перевода: Н.Лопатинская
Перевод 3: Субтитры Русские (sasha20072007), английские
В ролях: Мартин Ландау, Барбара Бэйн, Ник Тейт, Кэтрин Шелл, Бэрри Морс, Квентин Пьер, Тони Энхолт, Клифтон Джонс
Описание: Сериал "Space: 1999" не уступает по красочности и увлекательности сюжета другим очень известными sci-fi сериалами 70-х: "UFO" и "Star trek". В 1999 году, на поверхности Луны, рядом с кратером Коперник располагалась лунная база Альфа. Персонал базы вынужден бороться за выживание после того, как ядерный взрыв на Луне выбросил спутник Земли с ее орбиты и пустил странствовать в далекие глубины Космоса. Таким образом началось самое захватывающее 48-ми серийное путешествие в истории человечества..
Сезон 720 BDrip
Качество видео: DVDRip
Формат видео: MKV
Видео: MPEG4 AVC, 720*544 (4:3), 1340 кb/s
Аудио 1: 48000Hz, AC-3, 192 kbs, 2 ch Русский ЛО (kosmoaelita, Рутилов)
Аудио 2: 48000Hz, AC-3, 224 kbs, 2 ch Оригинал, английский
Формат субтитров: softsub (SRT)

МедиаИнфо

Вот медиаинфо
General
Format : Matroska
Format version : Version 4
File size : 630 MiB
Duration : 48 min 58 s
Overall bit rate : 1 798 kb/s
Movie name : Space: 1999 s02e02x24 / 1976г / The Exiles / Изгнанники / rip by sasha20072007 (2012-08-09)
Encoded date : UTC 2013-03-22 18:18:01
Writing application : mkvmerge v6.1.0 ('Old Devil') built on Mar 4 2013 09:10:42
Writing library : libebml v1.3.0 + libmatroska v1.4.0
Attachments : Space.1999.S2.DvdR.CyberVampire_poster.jpg / space-1999.jpg / VTS_02_1_002.mkv.encoding.log
Video
ID : 1
Format : AVC
Format/Info : Advanced Video Codec
Format profile : High@L4.1
Format settings : CABAC / 8 Ref Frames
Format settings, CABAC : Yes
Format settings, RefFrames : 8 frames
Codec ID : V_MPEG4/ISO/AVC
Duration : 48 min 58 s
Bit rate : 1 372 kb/s
Width : 720 pixels
Height : 544 pixels
Display aspect ratio : 4:3
Frame rate mode : Constant
Frame rate : 25.000 FPS
Color space : YUV
Chroma subsampling : 4:2:0
Bit depth : 8 bits
Scan type : Progressive
Bits/(Pixel*Frame) : 0.140
Stream size : 472 MiB (75%)
Title : Релиз www.kosmoaelita.com
Writing library : x264 core 125 r2200 999b753
Encoding settings : cabac=1 / ref=8 / deblock=1:-2:-1 / analyse=0x3:0x133 / me=umh / subme=10 / psy=1 / psy_rd=1.00:0.19 / mixed_ref=1 / me_range=24 / chroma_me=1 / trellis=2 / 8x8dct=1 / cqm=0 / deadzone=21,11 / fast_pskip=1 / chroma_qp_offset=-3 / threads=6 / lookahead_threads=1 / sliced_threads=0 / nr=0 / decimate=1 / interlaced=0 / bluray_compat=0 / constrained_intra=0 / bframes=10 / b_pyramid=2 / b_adapt=2 / b_bias=0 / direct=3 / weightb=1 / open_gop=0 / weightp=2 / keyint=220 / keyint_min=22 / scenecut=40 / intra_refresh=0 / rc_lookahead=60 / rc=2pass / mbtree=1 / bitrate=1372 / ratetol=1.0 / qcomp=0.60 / qpmin=0 / qpmax=69 / qpstep=4 / cplxblur=20.0 / qblur=0.5 / vbv_maxrate=17500 / vbv_bufsize=14000 / nal_hrd=none / ip_ratio=1.30 / aq=1:0.80
Default : Yes
Forced : No
Color range : Limited
Color primaries : BT.601 PAL
Transfer characteristics : BT.470 System B/G
Matrix coefficients : BT.470 System B/G
Audio #1
ID : 2
Format : AC-3
Format/Info : Audio Coding 3
Commercial name : Dolby Digital
Codec ID : A_AC3
Duration : 48 min 58 s
Bit rate mode : Constant
Bit rate : 192 kb/s
Channel(s) : 2 channels
Channel layout : L R
Sampling rate : 48.0 kHz
Frame rate : 31.250 FPS (1536 SPF)
Bit depth : 16 bits
Compression mode : Lossy
Stream size : 67.2 MiB (11%)
Title : Русский ЛО (kosmoaelita, Рутилов)
Language : Russian
Service kind : Complete Main
Default : Yes
Forced : No
Audio #2
ID : 3
Format : AC-3
Format/Info : Audio Coding 3
Commercial name : Dolby Digital
Codec ID : A_AC3
Duration : 48 min 58 s
Bit rate mode : Constant
Bit rate : 224 kb/s
Channel(s) : 2 channels
Channel layout : L R
Sampling rate : 48.0 kHz
Frame rate : 31.250 FPS (1536 SPF)
Bit depth : 16 bits
Compression mode : Lossy
Stream size : 78.5 MiB (12%)
Language : English
Service kind : Complete Main
Default : No
Forced : No
Text #1
ID : 4
Format : VobSub
Codec ID : S_VOBSUB
Codec ID/Info : Picture based subtitle format used on DVDs
Title : Русский (Н.Лопатинская, sasha20072007) VobSub
Language : Russian
Default : Yes
Forced : No
Text #2
ID : 5
Format : UTF-8
Codec ID : S_TEXT/UTF8
Codec ID/Info : UTF-8 Plain Text
Title : Русский (Н.Лопатинская, sasha20072007) srt
Language : Russian
Default : No
Forced : No
Text #3
ID : 6
Format : UTF-8
Codec ID : S_TEXT/UTF8
Codec ID/Info : UTF-8 Plain Text
Language : English
Default : No
Forced : No
Text #4
ID : 7
Format : VobSub
Codec ID : S_VOBSUB
Codec ID/Info : Picture based subtitle format used on DVDs
Language : Portuguese
Default : No
Forced : No
Menu
00:00:00.000 : en:01
00:05:00.233 : en:02
00:10:00.466 : en:03
00:15:10.933 : en:04
00:20:00.833 : en:05
00:25:00.333 : en:06
00:30:00.599 : en:07
00:35:00.266 : en:08
00:40:00.599 : en:09
00:45:00.000 : en:10
00:50:00.233 : en:11
00:55:00.466 : en:12
01:00:10.933 : en:13
01:10:00.833 : en:14
01:15:00.333 : en:15
01:20:00.599 : en:16
01:25:00.266 : en:17

Скриншоты



[Profile] [PM]

croMAG ®

Gender: Male

Longevity: 3 years 7 months

Posts: 2059

Location: Прибалтика

Post 02-Apr-2019 19:51 (after 6 hours)

[Quote]

Ночью не сидирую
[Profile] [PM]

Трамвай-фильм

Gender: Male

Longevity: 4 years 8 months

Posts: 1439

Location: Россия

Post 02-Apr-2019 19:59 (after 8 minutes)

[Quote]

С почином!
21772Ночью не сидирую
Это не страшно. Подправил немного оформление. Добавить бы МедиаИнфо.
[Profile] [PM]

croMAG ®

Gender: Male

Longevity: 3 years 7 months

Posts: 2059

Location: Прибалтика

Post 02-Apr-2019 20:06 (after 7 minutes)

[Quote]

Трамвай-фильм,
Каким почином Он тут есть Просто там такой сидер что главный хранитель Помпилиус за три дня выкачал 3 процента а там 53 гига .
Забыл добавить Медианфо . Вот теперь не знаю как Какие там тэги Или в личку могу скинуть что бы ты поставил. А то у нас такой бурный трекер я все перезабывал .
[Profile] [PM]

Трамвай-фильм

Gender: Male

Longevity: 4 years 8 months

Posts: 1439

Location: Россия

Post 02-Apr-2019 21:24 (after 1 hour 17 minutes)

[Quote]

21774Трамвай-фильм,
Каким почином Он тут есть Просто там такой сидер что главный хранитель Помпилиус за три дня выкачал 3 процента а там 53 гига .
Забыл добавить Медианфо . Вот теперь не знаю как Какие там тэги Или в личку могу скинуть что бы ты поставил. А то у нас такой бурный трекер я все перезабывал .
Можешь в личку прислать,я вставлю.
[Profile] [PM]

Трамвай-фильм

Gender: Male

Longevity: 4 years 8 months

Posts: 1439

Location: Россия

Post 03-Apr-2019 19:37 (after 22 hours)

[Quote]

Все вставил, подправил техданные.
[Profile] [PM]
Quick Reply

Name:

            
Heads necessary to send messages to enable JavaScript
Display posts:    
Reply to topic

Current time is: 22-Apr 13:40

All times are UTC + 3.5



You cannot post new topics in this forum
You can reply to topics in this forum
You cannot edit your posts in this forum
You cannot delete your posts in this forum
You cannot vote in polls in this forum
You cannot attach files in this forum
You cannot download files in this forum