Это НЛО! летающая Тарелка! / That is a UFO! The Flying Saucer / Kore ga UFO da! Soratobu Enban (Сигэно Кадзукиё) [1975, Япония, фантастика, документальный] [короткометражка] (АО : Трамвай-фильм)

Reply to topic
DL-List and Torrent activity
Complete
Size:  187 MB   |    Registered:  6 months 29 days   |    Completed:  7 times

Seeder not seen: 21 minute

 
   
 
 
 
Author Message

Трамвай-фильм ®

Gender: Male

Longevity: 5 years 2 months

Posts: 1616

Location: Россия

Post 23-Mar-2019 19:54

[Quote]

Это НЛО! летающая Тарелка! / That is a UFO! The Flying Saucer / Kore ga UFO da! Soratobu Enban (короткометражка)
Страна: Япония
Жанр: фантастика, документальный
Год выпуска: 1975
Продолжительность: 00:16:02
Перевод: Авторский (одноголосый) Трамвай-фильм
Режиссер: Сигэно Кадзукиё
Описание: Документальный анимационный фильм рассматривающий наиболее известные факты об НЛО за период наблюдения с 1947 по 1974 годы, включающий в себя настоящие фотографии НЛО и драматизацию описаний очевидцев.
Доп. информация: Римейк моей же работы 2009 года, перевод к которой не сохранился.
Видео: MPEG4 Video (H264), 1280x720, 29.97fps, 1 065 kb/s
Аудио 1: AAC, 44100Hz, stereo, 128 кб/с [Русский, на английскую дорожку]
Аудио 2: AAC, 44100Hz, stereo, 128 кб/с [Русский, на японскую дорожку]
Аудио 3: AAC, 44100Hz, stereo, 128 кб/с [Английский многоголосый, закадровый]
Аудио 4: AAC, 44100Hz, stereo, 178 кб/с [Японский оригинал]

MediaInfo

General
Unique ID : 231191233341565701566736503660996988863 (0xADEDCFD9CECE45B4845E75E3C1B80FBF)
Complete name : D:\Movie.Cartoon\That is a UFO! The Flying Saucer (1975).mkv
Format : Matroska
Format version : Version 4 / Version 2
File size : 187 MiB
Duration : 16 min 1 s
Overall bit rate : 1 631 kb/s
Encoded date : UTC 2019-03-23 16:29:14
Writing application : mkvmerge v7.1.0 ('Good Love') 32bit built on Jul 27 2014 12:59:18
Writing library : libebml v1.3.0 + libmatroska v1.4.1
Video
ID : 1
Format : AVC
Format/Info : Advanced Video Codec
Format profile : Main@L3.1
Format settings : CABAC / 3 Ref Frames
Format settings, CABAC : Yes
Format settings, ReFrames : 3 frames
Codec ID : V_MPEG4/ISO/AVC
Duration : 16 min 1 s
Bit rate : 1 065 kb/s
Width : 1 280 pixels
Height : 720 pixels
Display aspect ratio : 16:9
Frame rate mode : Constant
Frame rate : 29.970 (30000/1001) FPS
Color space : YUV
Chroma subsampling : 4:2:0
Bit depth : 8 bits
Scan type : Progressive
Bits/(Pixel*Frame) : 0.039
Stream size : 122 MiB (65%)
Default : Yes
Forced : No
Color range : Limited
Color primaries : BT.709
Transfer characteristics : BT.709
Matrix coefficients : BT.709
Audio #1
ID : 2
Format : AAC
Format/Info : Advanced Audio Codec
Format profile : LC
Codec ID : A_AAC-2
Duration : 16 min 1 s
Bit rate : 128 kb/s
Channel(s) : 2 channels
Channel positions : Front: L R
Sampling rate : 44.1 kHz
Frame rate : 43.066 FPS (1024 SPF)
Compression mode : Lossy
Stream size : 14.7 MiB (8%)
Title : AO Tramvai (RU_EN)
Language : Russian
Default : Yes
Forced : No
Audio #2
ID : 3
Format : AAC
Format/Info : Advanced Audio Codec
Format profile : LC
Codec ID : A_AAC-2
Duration : 16 min 0 s
Bit rate : 128 kb/s
Channel(s) : 2 channels
Channel positions : Front: L R
Sampling rate : 44.1 kHz
Frame rate : 43.066 FPS (1024 SPF)
Compression mode : Lossy
Stream size : 14.7 MiB (8%)
Title : AO Tramvai (RU_JP)
Language : Russian
Default : No
Forced : No
Audio #3
ID : 4
Format : AAC
Format/Info : Advanced Audio Codec
Format profile : LC
Codec ID : A_AAC-2
Duration : 16 min 1 s
Bit rate : 128 kb/s
Channel(s) : 2 channels
Channel positions : Front: L R
Sampling rate : 44.1 kHz
Frame rate : 43.066 FPS (1024 SPF)
Compression mode : Lossy
Stream size : 14.7 MiB (8%)
Title : ENG MVO
Language : English
Default : No
Forced : No
Audio #4
ID : 5
Format : AAC
Format/Info : Advanced Audio Codec
Format profile : LC
Codec ID : A_AAC-2
Duration : 16 min 0 s
Bit rate : 178 kb/s
Channel(s) : 2 channels
Channel positions : Front: L R
Sampling rate : 48.0 kHz
Frame rate : 46.875 FPS (1024 SPF)
Compression mode : Lossy
Stream size : 20.4 MiB (11%)
Title : JP DUB
Language : Japanese
Default : No
Forced : No

Скриншоты





UFO!The.Flying.Saucer.torrent
Torrent: Registered [ 2019-03-23 19:54 ]

Download .torrent

Download

15 KB

Status: checked
Completed: 7 times
Size: 187 MB
 
[Profile] [PM]
Quick Reply

Name:

            
Heads necessary to send messages to enable JavaScript
Display posts:    
Reply to topic

Current time is: 22-Oct 19:45

All times are UTC + 3



You can post new topics in this forum
You can reply to topics in this forum
You can edit your posts in this forum
You cannot delete your posts in this forum
You cannot vote in polls in this forum
You can attach files in this forum
You can download files in this forum