Воины пустоши / Воины пустошей / Тюремная планета / Prison Planet / Badlanders (Арман Газарян / Armand Gazarian) [1992, США, Фантастика, WEBRip-720p] ПД (НТВ+), АО (В. Горчаков)

Reply to topic
 
Author Message

Guest

Gender: Unknown

Longevity: 50 years

Post 23-Mar-2019 13:59

[Quote]

Воины пустоши / Воины пустошей / Тюремная планета / Prison Planet / Badlanders
Страна: США, 21st Century Film Corporation, Fable Films, Power Pictures
Жанр: фантастика, боевик
Год выпуска: 1992
Продолжительность: 01:28:12
Перевод 1: Профессиональный (двухголосый) НТВ+
Перевод 2: Авторский (одноголосый) В. Горчаков (с VHS)
Режиссер: Арман Газарян / Armand Gazarian
В ролях:
James Phillips ... Blaine
Michael M. Foley ... Broxton
Deborah Thompson Duda ... Kabilya (as Deborah Thompson-Carlin)
Dave Bean ... Heinsy
Jack Willcox ... Himshaw
Rhino Michaels ... Mayon
Frankie Ray ... Hoag
Michael Friedman ... Krayger
Clyde A. Ince ... Jacko
Al Guzman ... Mira
Romey Lewis ... Retro
Abbie C. Solarez ... Jigo (as Abbie C. Solary)
Michael Williams ... Zare
Leonard Kelly-Young ... Roverin - Referee
Kim Kopf ... Shiba
Описание: История про далекую, затерявшуюся на просторах Вселенной планету Анакин, где народ томится под безжалостным гнетом короля Химшоу, время от времени поднимая восстания, которые король топит в крови. Младшего брата Химшоу зовут Акира, и он стоит на стороне народа, но реально помочь простому люду он не в состоянии. Однако свободолюбивые 'племена будущего' мечтают о том времени, когда и жестокий диктатор окажется в заключении на тюремной планете...
Качество видео: WEBRip-720p
Формат: MKV
Видео: DivX4, 3276 кбит/с, 960x720, 24 к/с,
Аудио 1: Русский ПД (AC3, 2 ch, 192 Кбит/с)
Аудио 2: Русский АО (AC3, 2 ch, 192 Кбит/с)
Аудио 3: Английский (AC3, 2 ch, 192 Кбит/с)
Работа над релизом:
Видеоряд найден на синемагеддоне.
Синхронизация русских дорожек - kosmoaelita



Пример русского перевода от НТВ+

Дополнительно

слоган «'Mad Max' meets 'American Gladiators' in the ultimate road war!»
Also Known As (AKA)
(original title) Prison Planet
Brazil Badlanders - Os Guerreiros do Inferno
Netherlands (video title) Badlanders
Turkey (Turkish title) Gezegen
USA (cable TV title) Badlanders
Съёмки: 15 июля 1991 — 4 августа 1991
Камера: Panavision Cameras and Lenses
Формат копии: 35 mm
Изображение: цветное
Язык: английский

Отзывы

Вполне замечательная малобюджетная фантастика, в меру идиотская, но не настолько, чтоб хвататься за голову. На imdb фильм обозвали бессмысленным мусором, а рейтинг у него - 1,7. Ну, не знаю. Зря они так, поскольку есть фильмы намного, НАМНОГО хуже. Странные люди со странными критериями оценок.
Будущее. На одной планете коварный тип сверг с трона своего брата, сослал его на планету-тюрьму и начал терроризировать население. Но отважные повстанцы решили вернуть прежнего короля, и двое специально "попадаются" при совершении преступления, чтобы их сослали на ту же планету. Главный герой - один из этих двух повстанцев, отважный чувак с добрым героическим лицом (не особо меня такие типажи вдохновляют, ну да ладно). А на планете той царит атмосфера, знакомая нам по куче постапокалиптических фильмов: злобные работорговцы, несчастные рабыни, поединки за воду и еду - ну, вы поняли, надеюсь. смайлик+ Непреднамеренно наш герой убивает брата главного работорговца, и тот начинает за ним охотиться. Их противостояние занимает практически всё экранное время. Злодея играет двухметровый каратист Майкл Фоли, которому здесь налепили усы как у сома, а при всех диалогах с подчинёнными он грозно таращит глаза и вращает ими.
Режиссёр Арман Газарян в 1992 году снял ещё один фильм и два в 96ом, после чего активно занялся операторской работой, а фильмов больше не снимал. И, как я понимаю, "Планета-тюрьма" - самый известный его фильм.

Рецензия

MediaInfo

Общее
Уникальный идентификатор : 234153694854532724620963846710570411442 (0xB0285C7AF0CF1A8282F3A3D1082A65B2)
Полное имя : Prison Planet aka Badlanders 1992.x264.WEBRip.720p.2xRus.kosmoaelita.mkv
Формат : Matroska
Версия формата : Version 4
Размер файла : 2,42 Гбайт
Продолжительность : 1 ч. 28 м.
Общий поток : 3930 Кбит/сек
Название фильма : Prison Planet aka Badlanders / 1992 / kosmoaelita
Дата кодирования : UTC 2019-03-23 04:04:56
Программа кодирования : mkvmerge v6.6.0 ('The Edge Of The In Between') built on Dec 1 2013 17:55:00
Библиотека кодирования : libebml v1.3.0 + libmatroska v1.4.1
Attachments : poster.jpg
Видео
Идентификатор : 1
Формат : MPEG-4 Visual
Профиль формата : Simple@L1
Параметр BVOP формата : Нет
Параметр QPel формата : Нет
Параметр GMC формата : Без точки перехода
Параметр матрицы формата : Default (H.263)
Идентификатор кодека : V_MS/VFW/FOURCC / DIVX
Идентификатор кодека/Информация : Project Mayo
Идентификатор кодека/Подсказка : DivX 4
Продолжительность : 1 ч. 28 м.
Битрейт : 3276 Кбит/сек
Ширина : 960 пикселей
Высота : 720 пикселей
Соотношение сторон : 4:3
Режим частоты кадров : Постоянный
Частота кадров : 24,000 кадра/сек
Цветовое пространство : YUV
Субдискретизация насыщенности : 4:2:0
Битовая глубина : 8 бит
Тип развёртки : Прогрессивная
Метод сжатия : С потерями
Бит/(Пиксели*Кадры) : 0.197
Размер потока : 2,02 Гбайт (83%)
Заголовок : http://kosmoaelita.com/viewtopic.php?t=2687
Библиотека кодирования : Lavc55.52.102
Default : Да
Forced : Нет
Аудио #1
Идентификатор : 2
Формат : AC-3
Формат/Информация : Audio Coding 3
Коммерческое название : Dolby Digital
Идентификатор кодека : A_AC3
Продолжительность : 1 ч. 28 м.
Вид битрейта : Постоянный
Битрейт : 192 Кбит/сек
Каналы : 2 канала
Channel layout : L R
Частота : 48,0 КГц
Частота кадров : 31,250 кадров/сек (1536 SPF)
Битовая глубина : 16 бит
Метод сжатия : С потерями
Задержка видео : -23 мс.
Размер потока : 121 Мбайт (5%)
Заголовок : Русский ПД (НТВ+) читают текст Кузнецова и Тарадайкин
Язык : Russian
ServiceKind/String : Complete Main
Default : Да
Forced : Нет
Аудио #2
Идентификатор : 3
Формат : AC-3
Формат/Информация : Audio Coding 3
Коммерческое название : Dolby Digital
Идентификатор кодека : A_AC3
Продолжительность : 1 ч. 28 м.
Вид битрейта : Постоянный
Битрейт : 192 Кбит/сек
Каналы : 2 канала
Channel layout : L R
Частота : 48,0 КГц
Частота кадров : 31,250 кадров/сек (1536 SPF)
Битовая глубина : 16 бит
Метод сжатия : С потерями
Задержка видео : -23 мс.
Размер потока : 121 Мбайт (5%)
Заголовок : Русский АО (Василий Горчаков)
Язык : Russian
ServiceKind/String : Complete Main
Default : Нет
Forced : Нет
Аудио #3
Идентификатор : 4
Формат : AC-3
Формат/Информация : Audio Coding 3
Коммерческое название : Dolby Digital
Идентификатор кодека : A_AC3
Продолжительность : 1 ч. 28 м.
Вид битрейта : Постоянный
Битрейт : 192 Кбит/сек
Каналы : 2 канала
Channel layout : L R
Частота : 48,0 КГц
Частота кадров : 31,250 кадров/сек (1536 SPF)
Битовая глубина : 16 бит
Метод сжатия : С потерями
Задержка видео : -23 мс.
Размер потока : 121 Мбайт (5%)
Язык : English
ServiceKind/String : Complete Main
Default : Нет
Forced : Нет
Текст
Идентификатор : 5
Формат : UTF-8
Идентификатор кодека : S_TEXT/UTF8
Идентификатор кодека/Информация : UTF-8 Plain Text
Default : Да
Forced : Нет

Скриншоты
















Скринлист

Файл дополнительно залит на ОБЛАКО
[Profile] [PM]
Display posts:    
Reply to topic

Current time is: 29-Sep 15:41

All times are UTC + 3



You cannot post new topics in this forum
You cannot reply to topics in this forum
You cannot edit your posts in this forum
You cannot delete your posts in this forum
You cannot vote in polls in this forum
You cannot attach files in this forum
You cannot download files in this forum