Гибрид / Crossbreed (Брэндон Слэгли / Brandon Slagle) [2019, США, фантастика, боевик, триллер, WEBDL-1080p] ЛМ (@MUZOBOZ@), ПМ (HDrezka Studio)

Reply to topic
DL-List and Torrent activity
Size:  5.24 GB   |    Registered:  5 months 2 days   |    Completed:  3 times

Seeder not seen: 1 month 17 days

 
   
 
 
 
Author Message

kosmoaelita2 ®

Gender: Male

Longevity: 6 years 10 months

Posts: 743

Post 17-Mar-2019 18:52

[Quote]

Гибрид / Crossbreed
Страна: США, Jaguar Cinema, Jaguar Motion Pictures
Жанр: фантастика, боевик, триллер
Год выпуска: 2019
Продолжительность: 01:25:39
Перевод 1: Любительский (многоголосый) @MUZOBOZ@
Перевод 2: Профессиональный (многоголосый) HDrezka Studio
Режиссер: Брэндон Слэгли / Brandon Slagle
В ролях: Vivica A. Fox ... President Ellen Henricksen
Daniel Baldwin ... Secretary of Defense Weathers
Stink Fisher ... Adam 'Boss' Ryker
Devanny Pinn ... The Crossbreed
Vernon Wells ... Murphy
Antoine Lanier ... Ray 'Slaughterhouse' Stephenson
John T. Woods ... Alfonso 'Four-Eyes' Sihft
Jason McNeil ... R'Reon 'Degenerate' Jones
Mu-Shaka Benson ... Miller
Brandyn T. Williams ... Noob
Jason John Beebe ... Commander Ovecheck
Olivia Baseman ... Samaya
Tom DiNardo ... Dr. Bay
Serena Lorien ... Al
Amanda Mikhail ... Ashley
Описание: В недалёком будущем президент Новых Соединённых Штатов нанимает команду солдат - ветеранов, чтобы те выкрали инопланетное биологическое оружие из сверхсекретной лаборатории на орбите Земли.
Качество видео: WEBDL-1080p
Формат: MKV
Видео: x264, 7299 кбит/с, 1920x816 23.976 к/с
Аудио 1: Русский ЛМ (AC3, 6 ch, 640 Кбит/с)
Аудио 2: Русский ПМ (AC3, 2 ch, 192 Кбит/с)
Аудио 3: Английский (AC3, 6 ch, 640 Кбит/с)
Субтитры : Английские. французские. португальские
Работа над релизом:
Видеоряд найден на rarbg2018.org
Без рекламы.
Русская 5.1 дорожка получена путем наложения на центральный канал ориг. дорожки
русских фраз, выделенных из дорожки Кошары.
Работа по выделению и наложению - kosmoaelita



Пример русского перевода

Дополнительно

слоган «THIS IS WAR»
Also Known As (AKA)
(original title) Crossbreed
USA (working title) BIrth
USA (alternative title) _breed_
USA (working title) Nebulus
(working title) Breed

Отзывы

Фильм, где снимается кто-то из Болдуинов скорее окажется шлаком, чем наоборот. С этим фильмом всё в порядке. Здесь снимается Болдуин и это шлак.
----------------
Смотрел онлайн в перемотке. Вещи, эффекты, поведение и прически как будто из фантастики 90-х.
-------------------
В недалёком будущем, недалёкий президент нанимает команду недалёких солдафонов......

MediaInfo

Общее
Уникальный идентификатор : 230335238181807720088096348055059379115 (0xAD48F407F13F3D0690CCBCB367FD33AB)
Полное имя : F:\Crossbreed 2019.1080p.x264.WEBDL.1080p.2xRus.kosmoaelita.mkv
Формат : Matroska
Версия формата : Version 4
Размер файла : 5,36 Гбайт
Продолжительность : 1 ч. 25 м.
Общий поток : 8949 Кбит/сек
Название фильма : Crossbreed / Гибрид / 2019 / Релиз kosmoaelita.com
Дата кодирования : UTC 2019-05-16 20:58:46
Программа кодирования : mkvmerge v6.6.0 ('The Edge Of The In Between') built on Dec 1 2013 17:55:00
Библиотека кодирования : libebml v1.3.0 + libmatroska v1.4.1
Attachments : poster.jpg
Видео
Идентификатор : 1
Формат : AVC
Формат/Информация : Advanced Video Codec
Профиль формата : High@L4
Настройки формата : CABAC / 4 Ref Frames
Параметр CABAC формата : Да
Параметр RefFrames формата : 4 кадра
Идентификатор кодека : V_MPEG4/ISO/AVC
Продолжительность : 1 ч. 25 м.
Вид битрейта : Постоянный
Битрейт : 7299 Кбит/сек
Номинальный битрейт : 10000 Кбит/сек
Ширина : 1920 пикселей
Высота : 816 пикселей
Соотношение сторон : 2,35:1
Режим частоты кадров : Постоянный
Частота кадров : 23,976 (24000/1001) кадра/сек
Цветовое пространство : YUV
Субдискретизация насыщенности : 4:2:0
Битовая глубина : 8 бит
Тип развёртки : Прогрессивная
Бит/(Пиксели*Кадры) : 0.194
Размер потока : 4,37 Гбайт (82%)
Заголовок : http://kosmoaelita.com/viewtopic.php?t=2686
Default : Да
Forced : Нет
Цветовой диапазон : Limited
Основные цвета : BT.709
Характеристики трансфера : BT.709
Коэффициенты матрицы : BT.709
Аудио #1
Идентификатор : 2
Формат : AC-3
Формат/Информация : Audio Coding 3
Коммерческое название : Dolby Digital
Идентификатор кодека : A_AC3
Продолжительность : 1 ч. 25 м.
Вид битрейта : Постоянный
Битрейт : 640 Кбит/сек
Каналы : 6 каналов
Channel layout : L R C LFE Ls Rs
Частота : 48,0 КГц
Частота кадров : 31,250 кадров/сек (1536 SPF)
Битовая глубина : 16 бит
Метод сжатия : С потерями
Размер потока : 392 Мбайт (7%)
Заголовок : Русский ЛМ (@MUZOBOZ@) - выделение фраз на центр. канал
Язык : Russian
ServiceKind/String : Complete Main
Default : Да
Forced : Нет
Аудио #2
Идентификатор : 3
Формат : AC-3
Формат/Информация : Audio Coding 3
Коммерческое название : Dolby Digital
Идентификатор кодека : A_AC3
Продолжительность : 1 ч. 25 м.
Вид битрейта : Постоянный
Битрейт : 192 Кбит/сек
Каналы : 2 канала
Channel layout : L R
Частота : 48,0 КГц
Частота кадров : 31,250 кадров/сек (1536 SPF)
Битовая глубина : 16 бит
Метод сжатия : С потерями
Размер потока : 118 Мбайт (2%)
Заголовок : Русский ПМ (HDrezka Studio)
Язык : Russian
ServiceKind/String : Complete Main
Default : Нет
Forced : Нет
Аудио #3
Идентификатор : 4
Формат : E-AC-3
Формат/Информация : Enhanced AC-3
Коммерческое название : Dolby Digital Plus
Идентификатор кодека : A_EAC3
Продолжительность : 1 ч. 25 м.
Вид битрейта : Постоянный
Битрейт : 640 Кбит/сек
Каналы : 6 каналов
Channel layout : L R C LFE Ls Rs
Частота : 48,0 КГц
Частота кадров : 31,250 кадров/сек (1536 SPF)
Метод сжатия : С потерями
Размер потока : 392 Мбайт (7%)
Язык : English
ServiceKind/String : Complete Main
Default : Нет
Forced : Нет
Текст #1
Идентификатор : 5
Формат : UTF-8
Идентификатор кодека : S_TEXT/UTF8
Идентификатор кодека/Информация : UTF-8 Plain Text
Заголовок : Форс
Default : Да
Forced : Нет
Текст #2
Идентификатор : 6
Формат : UTF-8
Идентификатор кодека : S_TEXT/UTF8
Идентификатор кодека/Информация : UTF-8 Plain Text
Язык : English
Default : Нет
Forced : Нет
Текст #3
Идентификатор : 7
Формат : UTF-8
Идентификатор кодека : S_TEXT/UTF8
Идентификатор кодека/Информация : UTF-8 Plain Text
Заголовок : SDH
Язык : English
Default : Нет
Forced : Нет
Текст #4
Идентификатор : 8
Формат : UTF-8
Идентификатор кодека : S_TEXT/UTF8
Идентификатор кодека/Информация : UTF-8 Plain Text
Язык : French
Default : Нет
Forced : Нет
Текст #5
Идентификатор : 9
Формат : UTF-8
Идентификатор кодека : S_TEXT/UTF8
Идентификатор кодека/Информация : UTF-8 Plain Text
Язык : Portuguese
Default : Нет
Forced : Нет

Скриншоты
















Скринлист

Файл дополнительно залит на ОБЛАКО
Crossbreed 2019.1080p.x264.WEBDL.1080p.Rus.kosmoaelita.mkv.torrent
Torrent: Registered [ 2019-03-17 21:41 ]

Download .torrent

Download

13 KB

Status: checked
Completed: 3 times
Size: 5.24 GB
 


Last edited by kosmoaelita2 on 2019-05-17 00:06; edited 7 times in total
[Profile] [PM]

kosmoaelita2 ®

Gender: Male

Longevity: 6 years 10 months

Posts: 743

Post 17-Mar-2019 21:42 (after 2 hours 49 minutes)

[Quote]

Без рекламы
[Profile] [PM]
Quick Reply

Name:

            
Heads necessary to send messages to enable JavaScript
Display posts:    
Reply to topic

Current time is: 20-Aug 10:20

All times are UTC + 3



You cannot post new topics in this forum
You can reply to topics in this forum
You cannot edit your posts in this forum
You cannot delete your posts in this forum
You cannot vote in polls in this forum
You cannot attach files in this forum
You can download files in this forum