Вызывает 21-й век / Century 21 Calling (Роберт Ларсен) [1962, США, документальный, научный, VHSRip] (АО : Трамвай-фильм)

Reply to topic
DL-List and Torrent activity
Size:  221 MB   |    Registered:  3 months 3 days   |    Completed:  4 times

Seeders:

Username ULR UL DL UL speed DL speed
pompilius 0 0- 0- 0- 0-
shows data only for the current session
 
   
 
 
 
Author Message

Трамвай-фильм ®

Gender: Male

Longevity: 4 years 10 months

Posts: 1460

Location: Россия

Post 17-Mar-2019 11:52

[Quote]

Вызывает 21-й век / Century 21 Calling
Страна: США
Жанр: документальный, научный
Год выпуска: 1962
Продолжительность: 00:13:57
Перевод: Авторский (одноголосый) Трамвай-фильм
Cубтитры: нет
Режиссер: Роберт Ларсен
Описание: Фильм приурочен к всемирной выставке в Сиэтле, 1962 года, и рассказывает о том, какая связь ждала нас в 21 веке.
Доп. информация: Фильм спродюсирован фирмой Bell System, коммуникационным гигантом США, современным подразделением фирмы AT&T

Качество видео: VHSRip
Видео: Xvid, 640x480, 29.97fps, 2066kbps
Аудио: MP3, 44100Hz, stereo, 128kbps

MediaInfo

General
Complete name : Century 21 Calling.avi
Format : AVI
Format/Info : Audio Video Interleave
File size : 221 MiB
Duration : 13 min 56 s
Overall bit rate : 2 212 kb/s
Video
ID : 0
Format : MPEG-4 Visual
Format profile : Simple@L3
Format settings, BVOP : No
Format settings, QPel : No
Format settings, GMC : No warppoints
Format settings, Matrix : Default (H.263)
Codec ID : XVID
Codec ID/Hint : XviD
Duration : 13 min 56 s
Bit rate : 2 067 kb/s
Width : 640 pixels
Height : 480 pixels
Display aspect ratio : 4:3
Frame rate : 29.970 (30000/1001) FPS
Original frame rate : 29.000 FPS
Color space : YUV
Chroma subsampling : 4:2:0
Bit depth : 8 bits
Scan type : Progressive
Compression mode : Lossy
Bits/(Pixel*Frame) : 0.224
Stream size : 206 MiB (93%)
Writing library : XviD 1.2.1 (UTC 2008-12-04)
Audio
ID : 1
Format : MPEG Audio
Format version : Version 1
Format profile : Layer 3
Format settings : Joint stereo / MS Stereo
Codec ID : 55
Codec ID/Hint : MP3
Duration : 13 min 56 s
Bit rate mode : Constant
Bit rate : 128 kb/s
Channel(s) : 2 channels
Sampling rate : 44.1 kHz
Compression mode : Lossy
Stream size : 12.8 MiB (6%)
Alignment : Aligned on interleaves
Interleave, duration : 26 ms (0.78 video frame)
Writing library : LAME3.98.2

Скриншоты



Century 21 Calling.torrent
Torrent: Registered [ 2019-03-17 11:52 ]

Download .torrent

Download

17 KB

Status: checked
Completed: 4 times
Size: 221 MB
 
[Profile] [PM]

Holmes

Gender: Male

Longevity: 2 years 2 months

Posts: 36

Location: СССР

Post 23-Mar-2019 15:10 (after 6 days)

[Quote]

Прикольно!
[Profile] [PM]
Quick Reply

Name:

            
Heads necessary to send messages to enable JavaScript
Display posts:    
Reply to topic

Current time is: 21-Jun 00:17

All times are UTC + 3



You can post new topics in this forum
You can reply to topics in this forum
You cannot edit your posts in this forum
You cannot delete your posts in this forum
You cannot vote in polls in this forum
You cannot attach files in this forum
You can download files in this forum