Мертвые земли / Wastelander (Анджело Лопес / Angelo Lopes) [2018, США, Фантастика, боевик, приключения, WEBDL-1080p] ЛМ (Синема УС)

Reply to topic
DL-List and Torrent activity
Size:  3.65 GB   |    Registered:  3 months 10 days   |    Completed:  1 time

Seeder not seen: 29 days

 
   
 
 
 
Author Message

kosmoaelita2 ®

Gender: Male

Longevity: 6 years 8 months

Posts: 743

Post 14-Mar-2019 23:49

[Quote]

Мертвые земли / Wastelander
Страна: США, Point Of View Pictures, Scott Hellon
Жанр: Фантастика, боевик, приключения
Год выпуска: 2018
Продолжительность: 01:28:40
Перевод: Любительский (многоголосый) Синема УС
Режиссер: Анджело Лопес / Angelo Lopes
В ролях:
Brendan Guy Murphy ... Rhyous
Carol Cardenas ... Neve
Jon Proudstar ... Solek
Sian Vilaire ... Miranda
David Morden ... Duran
Angelo Lopes ... Crichton
Aaron Stielstra ... Hildenstern The Cyber
Timothy Starks ... C.A.I.N.
Lou Pimber ... Debilitas
Paul Clinco ... Decrepid Pimp
Kali Sherwood ... Trish
Melanie Macy ... Raven
J.D. Wallace ... Junk Dealer
Daniel Frank Webster ... Prospector
Scott Hellon ... Solek's Mohawked Henchman
Описание: Человечество оказывается на грани вымирания, небольшая группа выживших ищет свой путь в этом новом ужасном мире. А идеи возрождения человеческой расы поражают своим ужасом и беспринципностью.
Качество видео: WEBDL-1080p
Формат: MKV
Видео: x264, 5011 кбит/с, 1912x1072, 23.976 к/с
Аудио 1: Русский ЛМ (AC3, 6 ch, 384 Кбит/с)
Аудио 2: Английский (AC3, 6 ch, 384 Кбит/с)
Субтитры : Английские, испанские, португальские
Работа над релизом:
Видеоряд найден на rarbg2018.org
Без рекламы.
Русская 5.1 дорожка получена путем наложения на центральный канал ориг. дорожки
русских фраз, выделенных из дорожки Кошары.
Работа по выделению и наложению - kosmoaelita



Пример русского перевода

Дополнительно

Отзывы

Малобюджетная антиутопия. Чем-то напоминает Mad Max I, но гораздо слабее. Релизеру спасибо за труды. 2 из 10.
----------------------------
Народ у кого крепкие яйца,смотрим фильм.

MediaInfo

Общее
Уникальный идентификатор : 184142254377337933908807761432772967851 (0x8A888217A405D579832B96127C817DAB)
Полное имя : N:\BD-DISC\Wastelander.2018.1080p.WEB-DL.DD5.1.H264-FGT\Wastelander 2018.x264.WEB-DL.1080p.Rus.kosmoaelita.mkv
Формат : Matroska
Версия формата : Version 4
Размер файла : 3,65 Гбайт
Продолжительность : 1 ч. 28 м.
Общий поток : 5897 Кбит/сек
Название фильма : Wastelander / 2018 / kosmoaelita
Дата кодирования : UTC 2019-03-14 20:20:24
Программа кодирования : mkvmerge v6.6.0 ('The Edge Of The In Between') built on Dec 1 2013 17:55:00
Библиотека кодирования : libebml v1.3.0 + libmatroska v1.4.1
Attachments : poster.jpg
Видео
Идентификатор : 1
Формат : AVC
Формат/Информация : Advanced Video Codec
Профиль формата : High@L4
Настройки формата : CABAC / 4 Ref Frames
Параметр CABAC формата : Да
Параметр RefFrames формата : 4 кадра
Идентификатор кодека : V_MPEG4/ISO/AVC
Продолжительность : 1 ч. 28 м.
Битрейт : 5011 Кбит/сек
Ширина : 1912 пикселей
Высота : 1072 пикселя
Соотношение сторон : 16:9
Режим частоты кадров : Постоянный
Частота кадров : 23,976 (24000/1001) кадра/сек
Цветовое пространство : YUV
Субдискретизация насыщенности : 4:2:0
Битовая глубина : 8 бит
Тип развёртки : Прогрессивная
Бит/(Пиксели*Кадры) : 0.102
Размер потока : 3,10 Гбайт (85%)
Заголовок : http://kosmoaelita.com/viewtopic.php?t=2682
Язык : English
Default : Да
Forced : Нет
Цветовой диапазон : Limited
Основные цвета : BT.709
Характеристики трансфера : BT.709
Коэффициенты матрицы : BT.709
Аудио #1
Идентификатор : 2
Формат : AC-3
Формат/Информация : Audio Coding 3
Коммерческое название : Dolby Digital
Идентификатор кодека : A_AC3
Продолжительность : 1 ч. 28 м.
Вид битрейта : Постоянный
Битрейт : 384 Кбит/сек
Каналы : 6 каналов
Channel layout : L R C LFE Ls Rs
Частота : 48,0 КГц
Частота кадров : 31,250 кадров/сек (1536 SPF)
Битовая глубина : 16 бит
Метод сжатия : С потерями
Задержка видео : -42 мс.
Размер потока : 244 Мбайт (7%)
Заголовок : Русский ЛМ (Синема УС) - выделение фраз на центр. канал
Язык : Russian
ServiceKind/String : Complete Main
Default : Да
Forced : Нет
Аудио #2
Идентификатор : 3
Формат : AC-3
Формат/Информация : Audio Coding 3
Коммерческое название : Dolby Digital
Идентификатор кодека : A_AC3
Продолжительность : 1 ч. 28 м.
Вид битрейта : Постоянный
Битрейт : 384 Кбит/сек
Каналы : 6 каналов
Channel layout : L R C LFE Ls Rs
Частота : 48,0 КГц
Частота кадров : 31,250 кадров/сек (1536 SPF)
Битовая глубина : 16 бит
Метод сжатия : С потерями
Задержка видео : -42 мс.
Размер потока : 244 Мбайт (7%)
Язык : English
ServiceKind/String : Complete Main
Default : Нет
Forced : Нет
Текст #1
Идентификатор : 4
Формат : UTF-8
Идентификатор кодека : S_TEXT/UTF8
Идентификатор кодека/Информация : UTF-8 Plain Text
Заголовок : Форс
Default : Да
Forced : Нет
Текст #2
Идентификатор : 5
Формат : UTF-8
Идентификатор кодека : S_TEXT/UTF8
Идентификатор кодека/Информация : UTF-8 Plain Text
Язык : English
Default : Нет
Forced : Нет
Текст #3
Идентификатор : 6
Формат : UTF-8
Идентификатор кодека : S_TEXT/UTF8
Идентификатор кодека/Информация : UTF-8 Plain Text
Язык : Spanish
Default : Нет
Forced : Нет
Текст #4
Идентификатор : 7
Формат : UTF-8
Идентификатор кодека : S_TEXT/UTF8
Идентификатор кодека/Информация : UTF-8 Plain Text
Язык : Portuguese
Default : Нет
Forced : Нет
Меню
00:00:00.000 : en:1
00:10:35.000 : en:2
00:19:15.000 : en:3
00:32:10.000 : en:4
00:44:31.000 : en:5
00:53:38.000 : en:6
01:02:55.000 : en:7
01:11:12.000 : en:8
01:19:43.000 : en:9
01:25:40.000 : en:10

Скриншоты




















Скринлист

Файл дополнительно залит на ОБЛАКО
Wastelander 2018.x264.WEB-DL.1080p.Rus.kosmoaelita.mkv.torrent
Torrent: Registered [ 2019-03-14 23:49 ]

Download .torrent

Download

9 KB

Status: checked
Completed: 1 times
Size: 3.65 GB
 


Last edited by kosmoaelita2 on 2019-03-14 23:59; edited 1 time in total
[Profile] [PM]

kosmoaelita2 ®

Gender: Male

Longevity: 6 years 8 months

Posts: 743

Post 14-Mar-2019 23:49 (after 16 seconds)

[Quote]

Без рекламы
[Profile] [PM]
Quick Reply

Name:

            
Heads necessary to send messages to enable JavaScript
Display posts:    
Reply to topic

Current time is: 25-Jun 14:58

All times are UTC + 3



You cannot post new topics in this forum
You can reply to topics in this forum
You cannot edit your posts in this forum
You cannot delete your posts in this forum
You cannot vote in polls in this forum
You cannot attach files in this forum
You can download files in this forum