Запретная Луна / Рокки Джонс, космический Рейнджер: Запретная Луна / Forbidden Moon [Rocky Jones Space Ranger e14-16] (Холлингсворт Морс) [1956, США, фантастика, семейный, VHSRip] [Фильм] (АО : Трамвай-фильм)

Reply to topic
DL-List and Torrent activity
Size:  770 MB   |    Registered:  7 months 3 days   |    Completed:  2 times

Seeder not seen: 8 hours

 
   
 
 
 
Author Message

Трамвай-фильм ®

Gender: Male

Longevity: 5 years 2 months

Posts: 1599

Location: Россия

Post 10-Mar-2019 15:27

[Quote]

Запретная Луна / Рокки Джонс, космический Рейнджер: Запретная Луна / Forbidden Moon [Rocky Jones Space Ranger e14-16] (Фильм)
Страна: США
Жанр: фантастика, семейный
Год выпуска: 1956
Продолжительность: 01:15:22
Перевод: Авторский (одноголосый) Трамвай-фильм
Режиссер: Холлингсворт Морс
В ролях: Ричард Крейн, Сали Менсфилд, Роберт Лиден, Скотти Бекет и др.
Описание: Рокки Джонсу предстоит спасти мир от властного диктатора планеты Медина, который задумал поставить на колени всю Вселенную с помощью открытой им формы радиационного излучения.
Доп. информация: Компиляция 14-16 серий Rocky Jones Space Ranger - The Forbidden Moon
Качество видео: VHSRip
Видео: MPEG4 Video (H264), 752x560, 24fps, 1 201 kb/s
Аудио 1: AAC, 44100Hz, stereo, 128 kb/s (русский)
Аудио 2: AAC, 44100Hz, stereo, 96 kb/s (английский)
Работа над релизом:


[kp][/kp]

Русский перевод

Список эпизодов и компиляций Рокки Джонса

Многие эпизоды которого поблочно потом с сокращениями компилированы в полнометражки:
Beyond the Curtain of Space: Chapter I S1, Ep1 -10 Apr. 1954
Beyond the Curtain of Space: Chapter II S1, Ep2 - 2 Mar. 1954
Beyond the Curtain of Space: Chapter III S1, Ep3- 9 Mar. 1954
(Полнометражка Beyond the Moon)
Bobby's Comet: Chapter I S1, Ep4 - 28 Aug. 1954
Bobby's Comet: Chapter II S1, Ep5 - 13 Apr. 1954
Bobby's Comet: Chapter III S1, Ep6 - 20 Apr. 1954
Menace from Outer Space
Escape Into Space S1, Ep7 - 1 May 1954
Rocky's Odyssey: Chapter I S1, Ep8 - 26 Sep. 1954
Rocky's Odyssey: Chapter II S1, Ep9 - 23 Mar. 1954
Rocky's Odyssey: Chapter III S1, Ep10 - 30 Mar. 1954
(Полнометражка The Gypsy Moon)
The Pirates of Prah: Chapter I S1, Ep11 - 8 May 1954
The Pirates of Prah: Chapter II S1, Ep12 - 11 May 1954
The Pirates of Prah: Chapter III S1, Ep13 - 18 May 1954
The Forbidden Moon: Chapter I S1, Ep14 - 19 Jun. 1954
The Forbidden Moon: Chapter II S1, Ep15 - 22 Jun. 1954
The Forbidden Moon: Chapter III S1, Ep16 - 29 Jun. 1954
Silver Needle in the Sky: Chapter I S1, Ep17 - 29 May 1954
Silver Needle in the Sky: Chapter II S1, Ep18 - 1 Jul. 1954
Silver Needle in the Sky: Chapter III S1, Ep19 - 8 Jul. 1954
(Полнометражка Silver Needle in the Sky)
Kip's Private War S1, Ep20 - 31 Jul. 1954
Crash of the Moons: Chapter I S1, Ep21 - 10 Jul. 1954
Crash of Moons: Chapter II S1, Ep22 - 17 Jul. 1954
Crash of Moons: Chapter III S1, Ep23 - 24 Jul. 1954
(Полнометражка Crash of Moons)
Blast-Off: Chapter I S1, Ep24 - 14 Aug. 1954
Blast Off: Chapter II S1, Ep25 - 10 Aug. 1954
Blast Off: Chapter III S1, Ep26 - 17 Aug. 1954
The Cold Sun: Chapter I S1, Ep27 - 17 Oct. 1954
The Cold Sun: Chapter II S1, Ep28 - 31 Aug. 1954
The Cold Sun: Chapter III S1, Ep29 - 7 Sep. 1954
Inferno in Space: Chapter I S1, Ep30 - 30 Oct. 1954
Inferno in Space: Chapter II S1, Ep31 - 21 Sep. 1954
Inferno in Space: Chapter III S1, Ep32 - 28 Sep. 1954
Vena and the Darnamo S1, Ep33 - 6 Nov. 1954
Out of This World: Chapter I S1, Ep34 - 20 Nov. 1954
Out of This World: Chapter II S1, Ep35 - 19 Oct. 1954
Out of This World: Chapter III S1, Ep36 - 26 Oct. 1954
The Trial of Rocky Jones: Chapter I S1, Ep37 - 11 Dec. 1954
The Trial of Rocky Jones: Chapter II S1, Ep38 - 9 Nov. 1954
The Trial of Rocky Jones: Chapter III S1, Ep39 - 16 Nov. 1954

MediaInfo

Общее
Уникальный идентификатор : 204374052006150566469361831001416472916 (0x99C102BAB547F5CA82278F979A1B1954)
Полное имя : The Forbidden Moon [Rocky Jones e14-16] 1954.x264.VHSRip.Rus.kosmoaelita.mkv
Формат : Matroska
Версия формата : Version 4 / Version 2
Размер файла : 770 Мбайт
Продолжительность : 1 ч. 15 м.
Общий поток : 1429 Кбит/сек
Дата кодирования : UTC 2019-03-10 12:05:52
Программа кодирования : mkvmerge v7.1.0 ('Good Love') 32bit built on Jul 27 2014 12:59:18
Библиотека кодирования : libebml v1.3.0 + libmatroska v1.4.1
Видео
Идентификатор : 1
Формат : AVC
Формат/Информация : Advanced Video Codec
Профиль формата : Baseline@L3
Параметр CABAC формата : Нет
Параметр ReFrames формата : 1 кадр
Режим смешивания : Container profile=Baseline@4.1
Идентификатор кодека : V_MPEG4/ISO/AVC
Продолжительность : 1 ч. 15 м.
Битрейт : 1201 Кбит/сек
Ширина : 752 пикселя
Высота : 560 пикселей
Соотношение сторон : 4:3
Режим частоты кадров : Постоянный
Частота кадров : 24,000 кадра/сек
Цветовое пространство : YUV
Субдискретизация насыщенности : 4:2:0
Битовая глубина : 8 бит
Тип развёртки : Прогрессивная
Бит/(Пиксели*Кадры) : 0.119
Размер потока : 647 Мбайт (84%)
Default : Да
Forced : Нет
Аудио #1
Идентификатор : 2
Формат : AAC
Формат/Информация : Advanced Audio Codec
Профиль формата : LC
Идентификатор кодека : A_AAC
Продолжительность : 1 ч. 15 м.
Битрейт : 128 Кбит/сек
Каналы : 2 канала
Расположение каналов : Front: L R
Частота : 44,1 КГц
Частота кадров : 43,066 кадра/сек (1024 spf)
Метод сжатия : С потерями
Размер потока : 69,0 Мбайт (9%)
Заголовок : АО Трамвай-фильм
Язык : Russian
Default : Да
Forced : Нет
Аудио #2
Идентификатор : 3
Формат : AAC
Формат/Информация : Advanced Audio Codec
Профиль формата : LC
Идентификатор кодека : A_AAC
Продолжительность : 1 ч. 15 м.
Битрейт : 96,0 Кбит/сек
Каналы : 2 канала
Расположение каналов : Front: L R
Частота : 44,1 КГц
Частота кадров : 43,066 кадра/сек (1024 spf)
Метод сжатия : С потерями
Размер потока : 52,0 Мбайт (7%)
Язык : English
Default : Нет
Forced : Нет

Скриншоты




Скринлист

Файл дополнительно залит на ОБЛАКО
Forbidden Moon.torrent
Torrent: Registered [ 2019-03-10 15:27 ]

Download .torrent

Download

15 KB

Status: checked
Completed: 2 times
Size: 770 MB
 
[Profile] [PM]
Quick Reply

Name:

            
Heads necessary to send messages to enable JavaScript
Display posts:    
Reply to topic

Current time is: 14-Oct 09:34

All times are UTC + 3



You can post new topics in this forum
You can reply to topics in this forum
You cannot edit your posts in this forum
You cannot delete your posts in this forum
You cannot vote in polls in this forum
You cannot attach files in this forum
You can download files in this forum