Космические Силы / Space Force (Peter Baldwin) [1978, США, комедия, пародия, фантастика, VHSRip] СТ (kosmoaelita-karlivanovich)

Reply to topic
 
Author Message

kosmoaelita2 ®

Gender: Male

Longevity: 6 years 10 months

Posts: 743

Post 25-Feb-2019 08:20

[Quote]

Космические Силы / Space Force
Страна: США, Columbia Pictures Television
Жанр: комедия, пародия, фантастика
Год выпуска: 1978
Продолжительность: 00:24:51
Перевод: Субтитры kosmoaelita-karlivanovich
Режиссер: Peter Baldwin
В ролях:
William Phipps ... Commander Irving Hinkley
Fred Willard ... Captain Thomas Woods
Larry Block ... Private Arnold Fleck
Jim Boyd ... Captain Leon Stoner
Hilly Hicks ... Captain Robert Milford
Maureen Mooney ... Sergeant Eve Bailey
Joseph G. Medalis ... Lieutenant Kabar
Richard Paul ... D.O.R.C. (voice)
Rest of cast listed alphabetically:
Billy Braver ... Berkovitz
Deborah Harmon ... Ship's Crier
Zitto Kazann ... War Minister Dalan
Patricia Noble ... Merivac (voice)
Описание: Пилот очередного неудавшегося шоу.
История о комичных астронавтах, назначенных на отдаленную военную космическую станцию.

Релиз

Качество видео: VHSRip
Формат: MKV
Видео: x264, 675 кбит/с, 640x480, 29.97 к/с
Аудио 2: Английский (AC3, 2 ch, 224 Кбит/с)
Субтитры : Русские ()
Работа над релизом:
Релиз kosmoaelita.
Видеоряд найден на синемагеддоне.
Перевод на слух с англ. по заказу kosmoaelita - karlivanovich

[kp][/kp]

Пример русского субт. перевода

Дополнительно

CAST: William Phipps (Cat-Women of the Moon); Fred Willard (Fernwood Tonight); Larry Block (Slap Shot); Jimmy Boyd (The Electric Company); Hilly Hicks (Raise the Titanic); Maureen Mooney (Hell High); Joe Medalis (Endangered Species); & Richard Paul (Bloodfist III: Forced to Fight)
The comic adventures that befall a crew of astronauts assigned to a remote military space station. Irving Hinkley is the commander of a remote military space station in the outer regions of the cosmos. Hinkley is rather incompetent and sending him into space was one way the military could rid themselves of a problem. Thomas Woods is the rather head- strong captain of the pilots and Sergeant Eve Bailey is the weapons expert. The station also has a robot (DORK) and the proposal was to relate the crew's experiences far removed from Earth. Other personnel are Arnold Flec, Robert Milford and Lieutenant Kabar. Joe Medalis plays one of the aliens who visit the zany crew of the starcraft space ship Fort Leo.
Could this be how Donald Trump envisions the future of America's military might? Space Force was an aired pilot from 1978 broadcast on the NBC network just before Saturday Night Live. Not surprisingly the show was never sold and this pilot is all we have of this outrageously bad TV gem. Six months after this was shown on television, Willard hosted SNL (October 14, 1978) with musical guest Devo. I'm sure the ratings were better for that show.

Отзывы

After the.."unique" announcement from Donald Trump of a Space Force,I found the various memes that went around spoofing it humorous. Checking a movie site,I was shocked to discover someone had found a pilot of a TV show with the name Space Force! This led to me seeing space be made great again.
--------------------------------------------------------------------
Shuttled out as a "pilot" filler broadcast after fellow Sci-Fi show Quark had been cancelled, the script by John Boni and Norman Stiles is glued with the atmosphere of being a rush-job, as some Star Trek-inspired space travel is explored with dire jokes which fall flat faster than the German robot. Done of the cheap, director Peter Baldwin gives the ep some retro charm with a catchy theme tune, plywood sets and the popping sound effects. Reprising his role in a sketch decades later,Fred Willard finds some laughs in outer space with his wide-eyed Captain Thomas Woods making space great again.

MediaInfo

Общее
Уникальный идентификатор : 211297299205446182240244179525244570813 (0x9EF6612B8D29574199E8A33C41204CBD)
Полное имя : Space Force 1978.x264.VHSRip.kosmoaelita.mkv
Формат : Matroska
Версия формата : Version 4 / Version 2
Размер файла : 163 Мбайт
Продолжительность : 24 м.
Общий поток : 918 Кбит/сек
Название фильма : Space Force / 1978 / Релиз kosmoaelita.com
Дата кодирования : UTC 2019-02-25 06:27:22
Программа кодирования : mkvmerge v6.6.0 ('The Edge Of The In Between') built on Dec 1 2013 17:55:00
Библиотека кодирования : libebml v1.3.0 + libmatroska v1.4.1
Attachments : poster.JPG
Видео
Идентификатор : 1
Формат : AVC
Формат/Информация : Advanced Video Codec
Профиль формата : Main@L3
Параметр CABAC формата : Да
Параметр ReFrames формата : 3 кадра
Идентификатор кодека : V_MPEG4/ISO/AVC
Продолжительность : 24 м.
Битрейт : 675 Кбит/сек
Ширина : 640 пикселей
Высота : 480 пикселей
Соотношение сторон : 4:3
Режим частоты кадров : Постоянный
Частота кадров : 29,970 (30000/1001) кадров/сек
Цветовое пространство : YUV
Субдискретизация насыщенности : 4:2:0
Битовая глубина : 8 бит
Тип развёртки : Прогрессивная
Бит/(Пиксели*Кадры) : 0.073
Размер потока : 120 Мбайт (74%)
Заголовок : http://kosmoaelita.com/viewtopic.php?t=2677
Default : Да
Forced : Нет
Аудио
Идентификатор : 2
Формат : AC-3
Формат/Информация : Audio Coding 3
Расширение режима : CM (complete main)
Параметр Endianness формата : Big
Идентификатор кодека : A_AC3
Продолжительность : 24 м.
Вид битрейта : Постоянный
Битрейт : 224 Кбит/сек
Каналы : 2 канала
Расположение каналов : Front: L R
Частота : 48,0 КГц
Частота кадров : 31,250 кадров/сек (1536 spf)
Метод сжатия : С потерями
Размер потока : 39,8 Мбайт (24%)
Язык : English
Default : Да
Forced : Нет
Текст #1
Идентификатор : 3
Формат : UTF-8
Идентификатор кодека : S_TEXT/UTF8
Идентификатор кодека/Информация : UTF-8 Plain Text
Заголовок : Русский (kosmoaelita,karlivanovich) .srt - перевод на слух с англ.
Язык : Russian
Default : Да
Forced : Нет
Текст #2
Идентификатор : 4
Формат : VobSub
Режим смешивания : zlib
Идентификатор кодека : S_VOBSUB
Идентификатор кодека/Информация : Picture based subtitle format used on DVDs
Заголовок : Русский (kosmoaelita,karlivanovich) .VobSub - перевод на слух с англ.
Язык : Russian
Default : Нет
Forced : Нет

Пример субтитров

Скриншоты










Скринлист

Файл дополнительно залит на ОБЛАКО
[Profile] [PM]
Display posts:    
Reply to topic

Current time is: 21-Aug 02:33

All times are UTC + 3



You cannot post new topics in this forum
You cannot reply to topics in this forum
You cannot edit your posts in this forum
You cannot delete your posts in this forum
You cannot vote in polls in this forum
You cannot attach files in this forum
You cannot download files in this forum