Кондор / Condor / Los Angeles 1999 (Вирджил В. Фогель / Virgil W. Vogel) [1985, США, фантастика, DVDRip] ЛО (den904), СТ (kosmoaelita-karlivanovich)

Reply to topic
 
Author Message

kosmoaelita ®

Gender: Male

Longevity: 8 years

Posts: 1651

Post 22-Feb-2019 03:35

[Quote]

Кондор / Condor / Los Angeles 1999
Страна: США, JayGee Productions Inc., Orion Television
Жанр: фантастика
Год выпуска: 1985
Продолжительность: 01:12:57
Перевод: ЛО den904 по субтитрам от kosmoaelita-karlivanovich
Режиссер: Вирджил В. Фогель / Virgil W. Vogel
В ролях:
Ray Wise ... Christopher Proctor
Wendy Kilbourne ... Lisa Hampton
Vic Polizos ... Ward
James Avery ... Cas
Cassandra Gava ... Sumiko
Craig Stevens ... Cyrus Hampton
Carolyn Seymour ... Rachel Hawkins
Shawn Michaels ... Watch Commander
Mario Roccuzzo ... Manny
Catherine Battistone ... Lieutenant
Barbara Beckley ... 1st Watch Controller
Diana Bellamy ... Opera Singer
Gene Bicknell ... Bartender
Myra Chason ... Pirate Pete's Waitress
Tony Epper ... 2nd Cop
Описание: В 1999 г в Лос-Анжелесе организация по борьбе с криминалом под названием Кондор действует против Чёрной Вдовы, лидера преступного мира. Чёрная Вдова крадёт важный код и угрожает взорвать Голливуд, если её старый враг и сотрудник Кондора, Проктор, не будет ей передан.
Релиз

Качество видео: WEBRip
Формат: MKV
Видео: x264, 2545 кбит/с, 640x480, 23.976 к/с
Аудио 1: Русский ЛО (den904) (AC3, 2 ch, 192 Кбит/с)
Аудио 2: Английский (AC3, 2 ch, 192 Кбит/с)
Субтитры : Русские (kosmoaelita-karlivanovich), английские
Работа над релизом:
Релиз kosmoaelita.
Видеоряд найден в сети.
Перевод с англ. субтитров по заказу kosmoaelita - karlivanovich
Русская озвучка по заказу kosmoaelita - den904



Пример русского субтитрового перевода

Дополнительно

Also Known As (AKA)
(original title) Condor
Brazil Uma Agente do Ano 2000
Finland (video box title) Condor - Lain kova käsivarsi
France Condor, Los Angeles 1999
Greece Καταδίωξη στον 21ο αιώνα
Italy Project Condor
Spain Condor (Los Angeles 1999)
Формат изображения: 1.33 : 1
Формат копии: 35 mm
Формат съёмок: 35 mm
Изображение: цветное
Язык: английский

Отзывы

MediaInfo

Общее
Уникальный идентификатор : 226750442804038246658095324300928327133 (0xAA968BF91D529F839D5853478A139DDD)
Полное имя : N:\Condor 1985.x264.WEBRip.Rus.kosmoaelita.mkv
Формат : Matroska
Версия формата : Version 4
Размер файла : 1,52 Гбайт
Продолжительность : 1 ч. 12 м.
Режим общего битрейта : Переменный
Общий поток : 2985 Кбит/сек
Название фильма : Condor - Кондор / 1985 / Релиз kosmoaelita.com
Дата кодирования : UTC 2020-01-17 23:21:08
Программа кодирования : mkvmerge v6.6.0 ('The Edge Of The In Between') built on Dec 1 2013 17:55:00
Библиотека кодирования : libebml v1.3.0 + libmatroska v1.4.1
Attachments : poster.jpg
Видео
Идентификатор : 1
Формат : AVC
Формат/Информация : Advanced Video Codec
Профиль формата : Main@L3
Настройки формата : CABAC / 4 Ref Frames
Параметр CABAC формата : Да
Параметр RefFrames формата : 4 кадра
Параметр GOP формата : M=4, N=48
Идентификатор кодека : V_MPEG4/ISO/AVC
Продолжительность : 1 ч. 12 м.
Вид битрейта : Переменный
Битрейт : 2542 Кбит/сек
Максимальный битрейт : 5194 Кбит/сек
Ширина : 640 пикселей
Высота : 480 пикселей
Соотношение сторон : 4:3
Режим частоты кадров : Постоянный
Частота кадров : 23,976 (24000/1001) кадра/сек
Стандарт вещания : Component
Цветовое пространство : YUV
Субдискретизация насыщенности : 4:2:0
Битовая глубина : 8 бит
Тип развёртки : Прогрессивная
Бит/(Пиксели*Кадры) : 0.345
Размер потока : 1,30 Гбайт (85%)
Заголовок : http://kosmoaelita.com/viewtopic.php?t=2673
Default : Да
Forced : Нет
Цветовой диапазон : Limited
Аудио #1
Идентификатор : 2
Формат : AC-3
Формат/Информация : Audio Coding 3
Коммерческое название : Dolby Digital
Идентификатор кодека : A_AC3
Продолжительность : 1 ч. 12 м.
Вид битрейта : Постоянный
Битрейт : 192 Кбит/сек
Каналы : 2 канала
ChannelLayout : L R
Частота : 48,0 КГц
Частота кадров : 31,250 кадров/сек (1536 SPF)
Метод сжатия : С потерями
Задержка видео : -41 мс.
Размер потока : 100 Мбайт (6%)
Заголовок : Русский ЛО (den904) - для kosmoaelita.com
Язык : Russian
ServiceKind/String : Complete Main
Default : Да
Forced : Нет
Аудио #2
Идентификатор : 3
Формат : AC-3
Формат/Информация : Audio Coding 3
Коммерческое название : Dolby Digital
Идентификатор кодека : A_AC3
Продолжительность : 1 ч. 12 м.
Вид битрейта : Постоянный
Битрейт : 192 Кбит/сек
Каналы : 2 канала
ChannelLayout : L R
Частота : 48,0 КГц
Частота кадров : 31,250 кадров/сек (1536 SPF)
Метод сжатия : С потерями
Задержка видео : -41 мс.
Размер потока : 100 Мбайт (6%)
Язык : English
ServiceKind/String : Complete Main
Default : Нет
Forced : Нет
Текст #1
Идентификатор : 4
Формат : UTF-8
Идентификатор кодека : S_TEXT/UTF8
Идентификатор кодека/Информация : UTF-8 Plain Text
Заголовок : Русский (kosmoaelita-karlivanovich) .srt - перевод с англ. субт.
Язык : Russian
Default : Да
Forced : Нет
Текст #2
Идентификатор : 5
Формат : VobSub
Режим смешивания : zlib
Идентификатор кодека : S_VOBSUB
Идентификатор кодека/Информация : Picture based subtitle format used on DVDs
Заголовок : Русский (kosmoaelita-karlivanovich) .VobSub - перевод с англ. субт.
Язык : Russian
Default : Нет
Forced : Нет
Текст #3
Идентификатор : 6
Формат : UTF-8
Идентификатор кодека : S_TEXT/UTF8
Идентификатор кодека/Информация : UTF-8 Plain Text
Язык : English
Default : Нет
Forced : Нет

Пример субтитров

2
00:00:19,795 --> 00:00:24,221
Это домашняя база.
Город на пороге XXI века.
3
00:00:24,291 --> 00:00:26,602
Меня зовут Проктор,
и я живу здесь.
4
00:00:26,627 --> 00:00:29,327
Немного старомодно,
но это мой стиль.
5
00:00:29,397 --> 00:00:32,693
Я работаю на международную миротворческую
организацию под названием "Кондор".
6
00:00:32,748 --> 00:00:36,104
Я только что вернулся с трудного задания,
на котором потерял друга и партнёра.
---------------------
728
01:11:23,167 --> 01:11:27,192
- Проктор, довези меня до машины.
- Садись.
729
01:11:27,898 --> 01:11:29,898
Нам в другую сторону.
730
01:11:30,246 --> 01:11:32,246
Нам в другую сторону!
731
01:11:39,962 --> 01:11:43,515
С тобой одни неприятности, Хэмптон.
Клиент всегда прав!
732
01:11:46,919 --> 01:11:50,477
Похоже ты проигрываешь, партнёр.

Скриншоты














Скринлист



Last edited by kosmoaelita on 2020-01-18 02:40; edited 7 times in total
[Profile] [PM]

CROM@G

Gender: Male

Longevity: 5 years

Posts: 3383

Location: Прибалтика

Post 19-Dec-2019 20:02 (after 9 months 25 days)

[Quote]

В 1999 г в Лос-Анжелесе организация по борьбе с криминалом под названием Кондор действует против Чёрной Вдовы, лидера преступного мира. Чёрная Вдова крадёт важный код и угрожает взорвать Голливуд, если её старый враг и сотрудник Кондора, Проктор, не будет передан ей.
[Profile] [PM]

kosmoaelita ®

Gender: Male

Longevity: 8 years

Posts: 1651

Post 18-Jan-2020 01:56 (after 29 days)

[Quote]

Добавлена русская озвучка от den904
Спасибо всем участникам проекта!
[Profile] [PM]
Display posts:    
Reply to topic

Current time is: 29-Sep 07:09

All times are UTC + 3



You cannot post new topics in this forum
You cannot reply to topics in this forum
You cannot edit your posts in this forum
You cannot delete your posts in this forum
You cannot vote in polls in this forum
You cannot attach files in this forum
You cannot download files in this forum