Последний Палач / L'ultimo guerriero / The Final Executioner / Final Executor (Ромоло Гуэрриэри / Romolo Guerrieri) [1984, Италия, фантастика, боевик, постапокалипсис, VHSRip] ЛО (А.Лагута), СТ (Zman69)

Reply to topic
DL-List and Torrent activity
Size:  1.43 GB   |    Registered:  1 year 9 months   |    Completed:  3 times

Seeder not seen: 5 months 28 days

 
   
 
 
 
Author Message

Guest

Gender: Unknown

Longevity: 50 years

Post 17-Feb-2019 04:06

[Quote]

Последний Палач / L'ultimo guerriero / The Final Executioner / Final Executor
Страна: Италия, L'immagine S.r.l.
Жанр: фантастика, боевик, постапокалипсис, трэш
Год выпуска: 1984
Продолжительность: 01:29:50
Перевод: Любительский (одноголосый) А.Лагута по субтитрам от Zman69
Режиссер: Ромоло Гуэрриэри / Romolo Guerrieri
В ролях:
William Mang ... Alan Tanner
Marina Costa ... Edra
Harrison Muller ... Erasmus
Woody Strode ... Sam
Margie Newton ... Diane (as Margi Newton)
Stefano Davanzati ... Melvin
Renato Miracco ... Louis
Maria Romano ... Magda
Luca Giordana ... Phil
Karl Zinny ... Evan, the Boy
Cinzia Bonfantini ... Alan's Wife
Giovanni Cianfriglia ... Walker
Tommaso Mesto
Описание: После ядерной катастрофы мир разделился на две группы: богатое, привилегированное меньшинство, которое избежало контакта с радиацией, и заражённое большинство. Так появилась Охота, развлекательный способ очищения общества от нищих и бездомных, которые были классифицированы как «мишени». И вот однажды, один человек обнаружил, что заражение закончилось.
Качество видео: VHSRip
Формат: MKV
Видео: x264, 1631 кбит/с, 720x424, 25 к/с
Аудио 1: Русский ЛО (AC3, 2 ch, 192 Кбит/с)
Аудио 2: Английский (AC3, 2 ch, 192 Кбит/с)
Аудио 3: Итальянский (AC3, 2 ch, 256 Кбит/с)
Субтитры : Русские (), английские
Работа над релизом:
Видеоряд найден на синемагеддоне.
Синхронизация русской дорожки - kosmoaelita
Примерно 2 минуты эрот. сцен - без перевода



Пример русского перевода

Дополнительно

Also Known As (AKA)
(original title) L'ultimo guerriero
Brazil O Executor Final
Canada (French title) Chasse aux morts vivants
Finland Teloittajat
France (video title) La chasse aux morts vivants
Japan (TV title) Rasuto sorujâ
Japan (English title) The Final Executioner
Japan (video title) Za ekusukyûtâ
Japan (English title) (video box title) Final Executor
Portugal Executor Final
West Germany Rockit - Final Executor
World-wide (English title) The Final Executioner
The Last Warrior
Формат изображения: 1.85 : 1
Изображение: цветное
Язык: итальянский

Знаете ли вы, что...

Отзывы

Такое ощущение, что оба фильма, - "Палач из Бронкса" и "Последний Палач", - снимались как-бы паралельно. Можно утвержать, что "Палач из Бронкса" - это ремейк, т.е. переделка "Последнего палача". Истории во многом повторяют одна другую, и в некоторых местах, использованы целые куски фрагментов из параллельного фильма... В обоих фильмах одни и те же актеры, но не полным составом. Главный герой - другой. и негодяи поменялись ролями. В общем, довольно любопытное кино, с точки зрения этих вот самых перестановок.... Нового, конечно, автор ничего миру в нем не сказал...
При всей схожести, "Последний Палач" оканчивается примерно там, где начинается "Палач из Бронкса". Выходит вроде, как главный герой отказал, дядюшке Сэму воевать под единым знаком справедливости, и ушел. Дядя Сэм, погороевал, побродил по зарослям, и тут вдруг появляется главный герой "Палача из Бронкса"... С ним приключается своя история. А где-то неподалеку, в схожем замке, "наступают на грабли" другие негодяи и их ждет точно такая же участь, как и в "Последнем палаче"... С вариациями конечно... Да и актеры, хоть и близняшки праралельного фильма, но должности и роли растасованы иначе. В общем, смотрите, и разберетесь во всем сами!
Режиссеры у фильмов разные, но есть повтроение сцен.

MediaInfo

Общее
Уникальный идентификатор : 252632559161732377293958702934589978894 (0xBE0F42D4F020CAA7A00F77F8C870390E)
Полное имя : F:\The Final Executioner 1984.x264.VHSRip.Rus.kosmoaelita.mkv
Формат : Matroska
Версия формата : Version 4 / Version 2
Размер файла : 1,43 Гбайт
Продолжительность : 1 ч. 29 м.
Общий поток : 2275 Кбит/сек
Название фильма : L'ultimo guerriero - The Final Executioner - Последний палач / 1984 / kosmoaelita
Дата кодирования : UTC 2019-02-17 01:50:01
Программа кодирования : mkvmerge v6.6.0 ('The Edge Of The In Between') built on Dec 1 2013 17:55:00
Библиотека кодирования : libebml v1.3.0 + libmatroska v1.4.1
Attachments : POSTER.jpg
Видео
Идентификатор : 1
Формат : AVC
Формат/Информация : Advanced Video Codec
Профиль формата : High@L3
Параметр CABAC формата : Да
Параметр ReFrames формата : 4 кадра
Идентификатор кодека : V_MPEG4/ISO/AVC
Продолжительность : 1 ч. 29 м.
Битрейт : 1631 Кбит/сек
Ширина : 720 пикселей
Высота : 424 пикселя
Соотношение сторон : 5:3
Режим частоты кадров : Постоянный
Частота кадров : 25,000 кадров/сек
Цветовое пространство : YUV
Субдискретизация насыщенности : 4:2:0
Битовая глубина : 8 бит
Тип развёртки : Прогрессивная
Бит/(Пиксели*Кадры) : 0.214
Размер потока : 1022 Мбайт (70%)
Заголовок : http://kosmoaelita.com/viewtopic.php?t=2671
Библиотека кодирования : x264 core 138 r2358 9e941d1
Настройки программы : cabac=1 / ref=3 / deblock=1:0:0 / analyse=0x3:0x113 / me=hex / subme=7 / psy=1 / psy_rd=1.00:0.00 / mixed_ref=1 / me_range=16 / chroma_me=1 / trellis=1 / 8x8dct=1 / cqm=0 / deadzone=21,11 / fast_pskip=1 / chroma_qp_offset=-2 / threads=6 / lookahead_threads=1 / sliced_threads=0 / nr=0 / decimate=1 / interlaced=0 / bluray_compat=0 / constrained_intra=0 / bframes=3 / b_pyramid=2 / b_adapt=1 / b_bias=0 / direct=1 / weightb=1 / open_gop=0 / weightp=2 / keyint=250 / keyint_min=25 / scenecut=40 / intra_refresh=0 / rc_lookahead=40 / rc=2pass / mbtree=1 / bitrate=1631 / ratetol=1.0 / qcomp=0.60 / qpmin=0 / qpmax=69 / qpstep=4 / cplxblur=20.0 / qblur=0.5 / ip_ratio=1.40 / aq=1:1.00
Default : Да
Forced : Нет
Аудио #1
Идентификатор : 2
Формат : AC-3
Формат/Информация : Audio Coding 3
Расширение режима : CM (complete main)
Параметр Endianness формата : Big
Идентификатор кодека : A_AC3
Продолжительность : 1 ч. 29 м.
Вид битрейта : Постоянный
Битрейт : 192 Кбит/сек
Каналы : 2 канала
Расположение каналов : Front: L R
Частота : 48,0 КГц
Частота кадров : 31,250 кадров/сек (1536 spf)
Метод сжатия : С потерями
Размер потока : 123 Мбайт (8%)
Заголовок : Русский ЛО (А.Лагута) по субтитрам от Zman
Язык : Russian
Default : Да
Forced : Нет
Аудио #2
Идентификатор : 3
Формат : AC-3
Формат/Информация : Audio Coding 3
Расширение режима : CM (complete main)
Параметр Endianness формата : Big
Идентификатор кодека : A_AC3
Продолжительность : 1 ч. 29 м.
Вид битрейта : Постоянный
Битрейт : 192 Кбит/сек
Каналы : 2 канала
Расположение каналов : Front: L R
Частота : 48,0 КГц
Частота кадров : 31,250 кадров/сек (1536 spf)
Метод сжатия : С потерями
Размер потока : 123 Мбайт (8%)
Язык : English
Default : Нет
Forced : Нет
Аудио #3
Идентификатор : 4
Формат : AC-3
Формат/Информация : Audio Coding 3
Расширение режима : CM (complete main)
Параметр Endianness формата : Big
Идентификатор кодека : A_AC3
Продолжительность : 1 ч. 29 м.
Вид битрейта : Постоянный
Битрейт : 256 Кбит/сек
Каналы : 2 канала
Расположение каналов : Front: L R
Частота : 48,0 КГц
Частота кадров : 31,250 кадров/сек (1536 spf)
Метод сжатия : С потерями
Размер потока : 165 Мбайт (11%)
Язык : Italian
Default : Нет
Forced : Нет
Текст #1
Идентификатор : 5
Формат : UTF-8
Идентификатор кодека : S_TEXT/UTF8
Идентификатор кодека/Информация : UTF-8 Plain Text
Заголовок : Русский (Zman) .srt
Язык : Russian
Default : Да
Forced : Нет
Текст #2
Идентификатор : 6
Формат : VobSub
Режим смешивания : zlib
Идентификатор кодека : S_VOBSUB
Идентификатор кодека/Информация : Picture based subtitle format used on DVDs
Заголовок : Русский (Zman) .VobSub
Язык : Russian
Default : Нет
Forced : Нет
Текст #3
Идентификатор : 7
Формат : UTF-8
Идентификатор кодека : S_TEXT/UTF8
Идентификатор кодека/Информация : UTF-8 Plain Text
Язык : English
Default : Нет
Forced : Нет

Пример субтитров

Скриншоты





















Скринлист

Файл дополнительно залит на ОБЛАКО
The Final Executioner 1984.x264.VHSRip.Rus.kosmoaelita.mkv.torrent
Torrent: Registered [ 2019-02-17 04:54 ]

Download .torrent

Download

7 KB

Status: checked
Completed: 3 times
Size: 1.43 GB
 


Last edited by on 2019-02-17 05:21; edited 3 times in total
[Profile] [PM]

Guest

Gender: Unknown

Longevity: 50 years

Post 17-Feb-2019 04:20 (after 14 minutes)

[Quote]

Представлена полная версия (с эрот. сценами ). Несколько минут без перевода.
rutracker vs. kosmoaelita

В 1989-м был снят полуримейк, полупродолжение
Палач из Бронкса
[Profile] [PM]

Guest

Gender: Unknown

Post 12-Oct-2019 19:19 (after 7 months 23 days)

[Quote]

Раздайте пожалуйста фильм .
 

4st

Gender: Unknown

Longevity: 1 year 4 months

Posts: 79

Post 12-Oct-2019 19:54 (after 34 minutes)

[Quote]

Можно с облака скачать.
[Profile] [PM]
Display posts:    
Reply to topic

Current time is: 30-Nov 01:47

All times are UTC + 3



You cannot post new topics in this forum
You cannot reply to topics in this forum
You cannot edit your posts in this forum
You cannot delete your posts in this forum
You cannot vote in polls in this forum
You cannot attach files in this forum
You can download files in this forum