Погоня во времени / Time Chasers / Tangents (Дэвид Джанкола / David Giancola) [1994, США, фантастика, DVDRip] АО (А.Кашкин)

Reply to topic
 
Author Message

Guest

Gender: Unknown

Longevity: 50 years

Post 16-Feb-2019 04:59

[Quote]

Погоня во времени / Time Chasers / Tangents
Страна: США
Жанр: фантастика
Год выпуска: 1994
Продолжительность: 01:29:19
Перевод: Авторский (одноголосый) А.Кашкин (c VHS, перевод с польского)
Режиссер: Дэвид Джанкола / David Giancola
В ролях:
Matthew Bruch ... Nick Miller
Bonnie Pritchard ... Lisa Henson
Peter Harrington ... Matthew Paul
George Woodard ... J.K. Robertson
Michael J. Valentine ... Cabbie
Jim Rohn ... Richter
Ted Pendleton ... Gris
Becky Fenton ... Becks
Jack McGinnis ... Mick
Martin Guigui ... Marty
Peter Beckwith ... Scalper
Ilene Blackman ... Newspaper Editor
Daniel Nelson ... Nicky
Emily Nelson ... Lis
Margaret Daly ... Nicky's Mom (as Margaret Schenck)
Описание: Молодой физик Ник изобретает временной транспортер. Из телепередачи Ник узнает о компании «ДЖИН КОР», субсидирующей проекты, связанные с будущим. Выделив средства на дальнейшую работу, компания забирает у парня транспортер и сдает его в аренду разным лицам за большие деньги. А клиенты переделывают историю на свой вкус, что приводит к нехорошим последствиям.
Качество видео: DVDRip
Формат: MKV
Видео: XviD, 1944 кбит/с, 640x480, 23.976 к/с
Аудио 1: Русский (AC3, 2 ch, 192 Кбит/с)
Аудио 2: Английский (AC3, 2 ch, 192 Кбит/с)
Аудио 3: Английский Comment (AC3, 2 ch, 192 Кбит/с)
Работа над релизом:
Видеоряд найден на синемагеддоне.
Удаление части польских фраз и синхр. русской дорожки - kosmoaelita



Пример русского перевода

Дополнительно

«The Ultimate Time Transport must be Destroyed to Save the Future...»
Производство 1990
Формат изображения: 1.66 : 1
Формат копии: 35 mm
Формат съёмок: 35 mm
Изображение: цветное
Язык: английский
Also Known As (AKA)
(original title) Time Chasers
Hungary Hajsza az időn át
Russia Погоня во времени
USA (video title) Time Chasers
USA (alternative title) Tangents
World-wide (English title) Time Chasers
(alternative title) Tangents

Отзывы

MediaInfo

Общее
Уникальный идентификатор : 250767414396688089664342756741867148570 (0xBCA80C18559F6288BD47F976745C951A)
Полное имя : Time Chasers 1994.XviD.DVDRip.Rus.kosmoaelita.mkv
Формат : Matroska
Версия формата : Version 4 / Version 2
Размер файла : 1,60 Гбайт
Продолжительность : 1 ч. 29 м.
Общий поток : 2571 Кбит/сек
Название фильма : Погоня во времени / Time Chasers / 1994 / kosmoaelita
Дата кодирования : UTC 2019-02-16 02:00:08
Программа кодирования : mkvmerge v6.6.0 ('The Edge Of The In Between') built on Dec 1 2013 17:55:00
Библиотека кодирования : libebml v1.3.0 + libmatroska v1.4.1
Attachments : poster Time Chasers.jpg
Видео
Идентификатор : 1
Формат : MPEG-4 Visual
Профиль формата : Advanced Simple@L5
Параметр BVOP формата : 1
Параметр QPel формата : Нет
Параметр GMC формата : Без точки перехода
Параметр матрицы формата : Выборочная
Идентификатор кодека : V_MS/VFW/FOURCC / XVID
Идентификатор кодека/Подсказка : XviD
Продолжительность : 1 ч. 29 м.
Битрейт : 1944 Кбит/сек
Ширина : 640 пикселей
Высота : 480 пикселей
Соотношение сторон : 4:3
Режим частоты кадров : Постоянный
Частота кадров : 23,976 (24000/1001) кадра/сек
Цветовое пространство : YUV
Субдискретизация насыщенности : 4:2:0
Битовая глубина : 8 бит
Тип развёртки : Прогрессивная
Метод сжатия : С потерями
Бит/(Пиксели*Кадры) : 0.264
Размер потока : 1,21 Гбайт (76%)
Заголовок : http://kosmoaelita.com/viewtopic.php?t=2667
Библиотека кодирования : XviD 1.2.0.dev47 (UTC 2006-11-01)
Default : Да
Forced : Нет
Аудио #1
Идентификатор : 2
Формат : AC-3
Формат/Информация : Audio Coding 3
Расширение режима : CM (complete main)
Параметр Endianness формата : Big
Идентификатор кодека : A_AC3
Продолжительность : 1 ч. 29 м.
Вид битрейта : Постоянный
Битрейт : 192 Кбит/сек
Каналы : 2 канала
Расположение каналов : Front: L R
Частота : 48,0 КГц
Частота кадров : 31,250 кадров/сек (1536 spf)
Метод сжатия : С потерями
Размер потока : 123 Мбайт (7%)
Заголовок : Русский АО (А.Кашкин) - VHS перевод с польского
Язык : Russian
Default : Да
Forced : Нет
Аудио #2
Идентификатор : 3
Формат : AC-3
Формат/Информация : Audio Coding 3
Расширение режима : CM (complete main)
Параметр Endianness формата : Big
Идентификатор кодека : A_AC3
Продолжительность : 1 ч. 29 м.
Вид битрейта : Постоянный
Битрейт : 192 Кбит/сек
Каналы : 2 канала
Расположение каналов : Front: L R
Частота : 48,0 КГц
Частота кадров : 31,250 кадров/сек (1536 spf)
Метод сжатия : С потерями
Размер потока : 123 Мбайт (7%)
Язык : English
Default : Нет
Forced : Нет
Аудио #3
Идентификатор : 4
Формат : AC-3
Формат/Информация : Audio Coding 3
Расширение режима : CM (complete main)
Параметр Endianness формата : Big
Идентификатор кодека : A_AC3
Продолжительность : 1 ч. 29 м.
Вид битрейта : Постоянный
Битрейт : 192 Кбит/сек
Каналы : 2 канала
Расположение каналов : Front: L R
Частота : 48,0 КГц
Частота кадров : 31,250 кадров/сек (1536 spf)
Метод сжатия : С потерями
Размер потока : 123 Мбайт (7%)
Заголовок : Comment
Язык : English
Default : Нет
Forced : Нет
Текст
Идентификатор : 5
Формат : UTF-8
Идентификатор кодека : S_TEXT/UTF8
Идентификатор кодека/Информация : UTF-8 Plain Text
Default : Да
Forced : Нет

Скриншоты


















Скринлист

Файл дополнительно залит на ОБЛАКО
[Profile] [PM]
Display posts:    
Reply to topic

Current time is: 01-Oct 16:51

All times are UTC + 3



You cannot post new topics in this forum
You cannot reply to topics in this forum
You cannot edit your posts in this forum
You cannot delete your posts in this forum
You cannot vote in polls in this forum
You cannot attach files in this forum
You cannot download files in this forum