Грендайзер, Гетто Робот Джи и Великий Мазингер против морского чудовища / Grandizer, Getter Robot G, Great Mazinger Decisive Battle! The Great Sea Monster (Масайуки Акехи) [1976, Япония, фантастика, DVDRip] (АО : Трамвай фильм)

Reply to topic
DL-List and Torrent activity
Size:  206 MB   |    Registered:  1 year 7 months   |    Completed:  4 times

Seeder not seen: 11 days

 
   
 
 
 
Author Message

Трамвай-фильм ®

Gender: Male

Longevity: 6 years 1 month

Posts: 1864

Location: Россия

Post 15-Feb-2019 21:32

[Quote]

Грендайзер, Гетто Робот Джи и Великий Мазингер против морского чудовища / Grandizer, Getter Robot G, Great Mazinger Decisive Battle! The Great Sea Monster
Страна: Япония
Жанр: фантастика
Год выпуска: 1976
Продолжительность: 00:30:42
Перевод: Авторский (одноголосый) Трамвай фильм (2011)
Режиссер: Масайуки Акехи
Описание: Экологическая катастрофа на нефтеналивном терминале пробудила со дна морского огромное чудовище, спавшее там тысячилетиями. Монстр мутировал под воздействием токсичного загрязнения и начал атаковать суда и танкеры. Единственное решение - собрать вместе всех гигантских роботов и дать бой морскому гаду.
Доп. информация: Фильм - неканоническое, короткометражное ответвление сюжета трёх популярных мех о Грендайзере, Гетто Роботе Джи и Мазингере.
Качество видео: DVDRip
Формат видео: MP4
Видео: MPEG4 Video (H264), 672x288, 25fps, 806kbps
Аудио: AAC, 44100Hz, stereo, 127kbps

MediaInfo

ormat : MPEG-4
Format profile : Base Media
Codec ID : isom (mp41)
File size : 206 MiB
Duration : 30 min 41 s
Overall bit rate : 940 kb/s
Encoded date : UTC 2019-02-14 20:37:52
Tagged date : UTC 2019-02-14 20:37:52
Video
ID : 2
Format : AVC
Format/Info : Advanced Video Codec
Format profile : Baseline@L3
Format settings : 1 Ref Frames
Format settings, CABAC : No
Format settings, ReFrames : 1 frame
Format settings, GOP : M=1, N=25
Muxing mode : Container profile=Baseline@4.1
Codec ID : avc1
Codec ID/Info : Advanced Video Coding
Duration : 30 min 41 s
Bit rate : 807 kb/s
Width : 672 pixels
Height : 288 pixels
Display aspect ratio : 2.35:1
Frame rate mode : Constant
Frame rate : 25.000 FPS
Color space : YUV
Chroma subsampling : 4:2:0
Bit depth : 8 bits
Scan type : Progressive
Bits/(Pixel*Frame) : 0.167
Stream size : 177 MiB (86%)
Language : English
Audio
ID : 1
Format : AAC
Format/Info : Advanced Audio Codec
Format profile : LC
Codec ID : mp4a-40-2
Duration : 30 min 41 s
Bit rate mode : Constant
Bit rate : 128 kb/s
Channel(s) : 2 channels
Channel positions : Front: L R
Sampling rate : 44.1 kHz
Frame rate : 43.066 FPS (1024 SPF)
Compression mode : Lossy
Stream size : 28.1 MiB (14%)

Скриншоты




Скринлист

Файл дополнительно залит на ОБЛАКО
Grendizer, Getter Robo G, Great Mazinger.torrent
Torrent: Registered [ 2019-02-15 21:32 ]

Download .torrent

Download

16 KB

Status: checked
Completed: 4 times
Size: 206 MB
 
[Profile] [PM]
Display posts:    
Reply to topic

Current time is: 01-Oct 14:45

All times are UTC + 3



You can post new topics in this forum
You cannot reply to topics in this forum
You cannot edit your posts in this forum
You cannot delete your posts in this forum
You cannot vote in polls in this forum
You can attach files in this forum
You can download files in this forum