Бесшумные хищники / Silent Predators (Ноэл Носсек / Noel Nosseck) [1999, США, ужасы, фантастика, триллер, WEBDL-720p] ПМ (ТВ-3)

Reply to topic
 
Author Message

Guest

Gender: Unknown

Longevity: 50 years

Post 14-Feb-2019 03:51

[Quote]

Бесшумные хищники / Silent Predators
Страна: США, Von Zerneck Sertner Films
Жанр: ужасы, фантастика, триллер
Год выпуска: 1999
Продолжительность: 01:30:46
Перевод: Профессиональный (многоголосый) ТВ-3
Режиссер: Ноэл Носсек / Noel Nosseck
В ролях:
Harry Hamlin ... Vic Rondelli
Shannon Sturges ... Mandy Stratford
David Spielberg ... Mayor Parker
Patty McCormack ... Vera Conrad
Beau Billingslea ... George Mitchell
Phillip Troy Linger ... Dr. Matthew Watkins
Jack Scalia ... Max Farrington
David Whitney ... Ken
David Webb ... Sheriff Howell
Carolyn Bock ... Anita Young
Beth Champion ... Karen
Sandra Bell ... Laura Holden
Kirsty Boden ... Tammy Holden
Darce Florio ... Anita's Friend
Paul Tassone ... Stranded Motorist
Описание: Калифорнийский городок Сан-Висент подвергается внезапному нападению гигантских ядовитых змей. Единственный, кто в силах справиться с чрезвычайной ситуацией — начальник пожарной охраны города Вик Ронделли. Он узнает, что 20 лет назад на шоссе возле города перевернулся грузовик, перевозивший клетку с громадной тропической змеей.
Убив водителя и сопровождающего, опасная рептилия бежала и, скрестившись с калифорнийскими гремучими змеями, дала начало новой, крайне агрессивной породе змей-мутантов. Когда же взрывы на грандиозном строительстве, затеянном местным бизнесменом Фаррингтоном, разрушили змеиное гнездо, все жители Сан-Висента оказались в смертельной опасности.

Качество видео: WEBDL-720p
Формат: MKV
Видео: x264, 2628 кбит/с, 1280x714, 23.976 к/с
Аудио 1: Русский (AC3, 2 ch, 256 Кбит/с)
Аудио 2: Английский (AC3, 2 ch, 256 Кбит/с)
Субтитры : Английские
Работа над релизом:
Видеоряд найден на rarbg2018.org
Синхронизация русской дорожки - kosmoaelita



Пример русского перевода

Дополнительно

слоган «The hunt is on. You're the Prey»
Also Known As (AKA)
(original title) Silent Predators
Bulgaria (Bulgarian title) Мълчалив хищник
Bulgaria (Bulgarian title) Тиха смърт
Denmark Den krybende død
Finland Äänetön saalistaja
France Morsures mortelles
France (DVD title) Morsure
Germany Die Invasion der Klapperschlangen
Germany (DVD box title) Angriff der Klapperschlangen
Greece (transliterated ISO-LATIN-1 title) Siopiloi dolofonoi
Hungary Kobra - Terror a lakóparkban
Italy Predatori letali
Poland Bezlitośni zabójcy
Portugal Predadores Silenciosos
Spain Asesinas silenciosas
Sweden Lurande Fara

Отзывы

Фильм привлек мое внимание тем, что небезызвестный Джон Карпентер значится в графе "сценарист", хоть и это не совсем так - он занимался телепьесой.
А фильм понравился. Очень приятный, динамичный, напряженный ТВ-фильм с прекрасной(присущей только второсортным(в хорошем значении) фильмам) атмосферой и легкой романтической ноткой. Сразу сильно заскучал за теми временами, когда смотрел фильмы только по ТВ.

MediaInfo

Общее
Уникальный идентификатор : 220615409202180166757859069384940630441 (0xA5F8FB768B003FB59C6ABFC4B140B1A9)
Полное имя : N:\BD-DISC\Silent.Predators.1999.720p.WEB.x264-ASSOCiATE[rarbg]\Silent Predators 1999.x264.WEB-DL.720p.Rus.kosmoaelita.mkv
Формат : Matroska
Версия формата : Version 4 / Version 2
Размер файла : 1,99 Гбайт
Продолжительность : 1 ч. 30 м.
Общий поток : 3138 Кбит/сек
Название фильма : Silent Predators / 1999 / kosmoaelita
Дата кодирования : UTC 2019-02-14 00:51:26
Программа кодирования : mkvmerge v6.6.0 ('The Edge Of The In Between') built on Dec 1 2013 17:55:00
Библиотека кодирования : libebml v1.3.0 + libmatroska v1.4.1
Attachments : POSTER _.jpg
Видео
Идентификатор : 1
Формат : AVC
Формат/Информация : Advanced Video Codec
Профиль формата : High@L4
Параметр CABAC формата : Да
Параметр ReFrames формата : 4 кадра
Идентификатор кодека : V_MPEG4/ISO/AVC
Продолжительность : 1 ч. 30 м.
Битрейт : 2628 Кбит/сек
Ширина : 1280 пикселей
Высота : 714 пикселей
Соотношение сторон : 16:9
Режим частоты кадров : Постоянный
Частота кадров : 23,976 (24000/1001) кадра/сек
Цветовое пространство : YUV
Субдискретизация насыщенности : 4:2:0
Битовая глубина : 8 бит
Тип развёртки : Прогрессивная
Бит/(Пиксели*Кадры) : 0.120
Размер потока : 1,67 Гбайт (84%)
Заголовок : http://kosmoaelita.com/viewtopic.php?t=2665
Библиотека кодирования : x264 core 148 r2 a01e339
Настройки программы : cabac=1 / ref=4 / deblock=1:0:0 / analyse=0x3:0x113 / me=umh / subme=8 / psy=1 / psy_rd=1.00:0.00 / mixed_ref=1 / me_range=16 / chroma_me=1 / trellis=0 / 8x8dct=1 / cqm=0 / deadzone=21,11 / fast_pskip=1 / chroma_qp_offset=-2 / threads=22 / lookahead_threads=5 / sliced_threads=0 / nr=0 / decimate=1 / interlaced=0 / bluray_compat=0 / constrained_intra=0 / bframes=4 / b_pyramid=2 / b_adapt=2 / b_bias=0 / direct=3 / weightb=1 / open_gop=0 / weightp=2 / keyint=96 / keyint_min=48 / scenecut=40 / intra_refresh=0 / rc_lookahead=40 / rc=crf / mbtree=1 / crf=1.0 / qcomp=0.60 / qpmin=0 / qpmax=69 / qpstep=4 / vbv_maxrate=3000 / vbv_bufsize=3000 / crf_max=0.0 / nal_hrd=none / filler=0 / ip_ratio=1.41 / aq=1:1.00
Default : Да
Forced : Нет
Аудио #1
Идентификатор : 2
Формат : AC-3
Формат/Информация : Audio Coding 3
Расширение режима : CM (complete main)
Параметр Endianness формата : Big
Идентификатор кодека : A_AC3
Продолжительность : 1 ч. 30 м.
Вид битрейта : Постоянный
Битрейт : 192 Кбит/сек
Каналы : 2 канала
Расположение каналов : Front: L R
Частота : 48,0 КГц
Частота кадров : 31,250 кадров/сек (1536 spf)
Метод сжатия : С потерями
Задержка видео : -83 мс.
Размер потока : 125 Мбайт (6%)
Заголовок : Русский ПМ (ТВ-3)
Язык : Russian
Default : Да
Forced : Нет
Аудио #2
Идентификатор : 3
Формат : AC-3
Формат/Информация : Audio Coding 3
Расширение режима : CM (complete main)
Параметр Endianness формата : Big
Идентификатор кодека : A_AC3
Продолжительность : 1 ч. 30 м.
Вид битрейта : Постоянный
Битрейт : 256 Кбит/сек
Каналы : 2 канала
Расположение каналов : Front: L R
Частота : 48,0 КГц
Частота кадров : 31,250 кадров/сек (1536 spf)
Метод сжатия : С потерями
Задержка видео : -83 мс.
Размер потока : 166 Мбайт (8%)
Язык : English
Default : Нет
Forced : Нет
Текст #1
Идентификатор : 4
Формат : UTF-8
Идентификатор кодека : S_TEXT/UTF8
Идентификатор кодека/Информация : UTF-8 Plain Text
Default : Да
Forced : Нет
Текст #2
Идентификатор : 5
Формат : UTF-8
Идентификатор кодека : S_TEXT/UTF8
Идентификатор кодека/Информация : UTF-8 Plain Text
Язык : English
Default : Нет
Forced : Нет

Скриншоты












Скринлист

Файл дополнительно залит на ОБЛАКО


Last edited by on 2019-02-14 04:30; edited 2 times in total
[Profile] [PM]

Guest

Gender: Unknown

Longevity: 50 years

Post 14-Feb-2019 04:09 (after 17 minutes)

[Quote]

SATRip vs. WEBDL

[Profile] [PM]
Display posts:    
Reply to topic

Current time is: 28-Sep 04:31

All times are UTC + 3



You cannot post new topics in this forum
You cannot reply to topics in this forum
You cannot edit your posts in this forum
You cannot delete your posts in this forum
You cannot vote in polls in this forum
You cannot attach files in this forum
You cannot download files in this forum