Экспедиция / Prospect (Кристофер Колдуэлл : Christopher Caldwell, Зик Эрл : Zeek Earl) [2014, США, короткометражка, фантастика, WEBRip-1080p] ЛД (DeeAFilm Studio), СТ ()

Reply to topic
DL-List and Torrent activity
Size:  390 MB   |    Registered:  2 months 11 days   |    Completed:  2 times

Seeder not seen: 13 hours

 
   
 
 
 
Author Message

kosmoaelita2 ®

Gender: Male

Longevity: 6 years 6 months

Posts: 645

Post 11-Feb-2019 05:10

[Quote]

Экспедиция / Prospect
Страна: США, Shep Films
Жанр: короткометражка, фантастика
Год выпуска: 2014
Продолжительность: 00:13:53
Перевод 1: Любительский (двухголосый) DeeAFilm Studio Михаил Гиполом, Алёна Андронова по переводу от Маркус Гонзалес
Перевод 2: Субтитры
Режиссер: Кристофер Колдуэлл : Christopher Caldwell, Зик Эрл : Zeek Earl
В ролях:
Thomas Castle ... Corpse
Rest of cast listed alphabetically:
Tony Doupe ... Father
Callie Harlow ... Daughter
Joshua Miles ... Bandit
Описание: Отец и дочь затеряны в вечнозеленых джунглях неведомой планеты: они охотники и собиратели, рассчитывающие разбогатеть за счет диковинной органической фауны. Но они — далеко не единственные авантюристы, забравшиеся в эти леса; и опасней отравленной атмосферы и диких зверей только сами люди…
Качество видео: WEBRip-1080p
Формат: MKV
Видео: x264, 3500 кбит/с, 1916x808, 23.976 к/с
Аудио 1: Русский (AC3, 2 ch, 256 Кбит/с)
Аудио 2: Английский (AC3, 2 ch, 256 Кбит/с)
Субтитры : Русские ()
Работа над релизом:
Видеоряд найден в сети.
инхр. русской дорожки - kosmoaelita



Пример русского перевода

Отзывы

MediaInfo

Общее
Уникальный идентификатор : 178586957767204836885450724230742398736 (0x865A98D2A3722E36997C47161443D710)
Полное имя : N:\BD-DISC\Prospect 2014.x264.WEBRip-1080p.Rus.kosmoaelita.mkv
Формат : Matroska
Версия формата : Version 4 / Version 2
Размер файла : 390 Мбайт
Продолжительность : 13 м.
Общий поток : 3932 Кбит/сек
Название фильма : Prospect 2014 WEBRip / kosmoaelita
Дата кодирования : UTC 2019-02-09 21:23:33
Программа кодирования : mkvmerge v6.6.0 ('The Edge Of The In Between') built on Dec 1 2013 17:55:00
Библиотека кодирования : libebml v1.3.0 + libmatroska v1.4.1
Attachments : poster.JPG
Видео
Идентификатор : 1
Формат : AVC
Формат/Информация : Advanced Video Codec
Профиль формата : High@L4.1
Параметр CABAC формата : Да
Параметр ReFrames формата : 4 кадра
Идентификатор кодека : V_MPEG4/ISO/AVC
Продолжительность : 13 м.
Битрейт : 3500 Кбит/сек
Ширина : 1916 пикселей
Высота : 808 пикселей
Соотношение сторон : 2,40:1
Режим частоты кадров : Постоянный
Частота кадров : 23,976 (24000/1001) кадра/сек
Цветовое пространство : YUV
Субдискретизация насыщенности : 4:2:0
Битовая глубина : 8 бит
Тип развёртки : Прогрессивная
Бит/(Пиксели*Кадры) : 0.094
Размер потока : 332 Мбайт (85%)
Библиотека кодирования : x264 core 130 r2273 b3065e6
Настройки программы : cabac=1 / ref=4 / deblock=1:-1:-1 / analyse=0x3:0x131 / me=umh / subme=10 / psy=1 / psy_rd=0.99:0.14 / mixed_ref=1 / me_range=32 / chroma_me=1 / trellis=2 / 8x8dct=1 / cqm=0 / deadzone=21,11 / fast_pskip=1 / chroma_qp_offset=-3 / threads=6 / lookahead_threads=1 / sliced_threads=0 / nr=0 / decimate=1 / interlaced=0 / bluray_compat=0 / constrained_intra=0 / bframes=8 / b_pyramid=2 / b_adapt=2 / b_bias=0 / direct=3 / weightb=1 / open_gop=0 / weightp=2 / keyint=210 / keyint_min=21 / scenecut=40 / intra_refresh=0 / rc_lookahead=80 / rc=2pass / mbtree=1 / bitrate=3500 / ratetol=1.0 / qcomp=0.65 / qpmin=0 / qpmax=69 / qpstep=4 / cplxblur=20.0 / qblur=0.5 / ip_ratio=1.25 / aq=1:0.90
Default : Да
Forced : Нет
Цветовой диапазон : Limited
Основные цвета : BT.709
Характеристики трансфера : BT.709
Коэффициенты матрицы : BT.709
Аудио #1
Идентификатор : 2
Формат : AC-3
Формат/Информация : Audio Coding 3
Расширение режима : CM (complete main)
Параметр Endianness формата : Big
Идентификатор кодека : A_AC3
Продолжительность : 13 м.
Вид битрейта : Постоянный
Битрейт : 256 Кбит/сек
Каналы : 2 канала
Расположение каналов : Front: L R
Частота : 48,0 КГц
Частота кадров : 31,250 кадров/сек (1536 spf)
Метод сжатия : С потерями
Размер потока : 25,4 Мбайт (7%)
Заголовок : Русский ЛД (DeeAFilm Studio) - Михаил Гиполом, Алёна Андронова по переводу от Маркус Гонзалес
Язык : Russian
Default : Да
Forced : Нет
Аудио #2
Идентификатор : 3
Формат : AC-3
Формат/Информация : Audio Coding 3
Расширение режима : CM (complete main)
Параметр Endianness формата : Big
Идентификатор кодека : A_AC3
Продолжительность : 13 м.
Вид битрейта : Постоянный
Битрейт : 256 Кбит/сек
Каналы : 2 канала
Расположение каналов : Front: L R
Частота : 48,0 КГц
Частота кадров : 31,250 кадров/сек (1536 spf)
Метод сжатия : С потерями
Размер потока : 25,4 Мбайт (7%)
Язык : English
Default : Нет
Forced : Нет
Текст #1
Идентификатор : 4
Формат : UTF-8
Идентификатор кодека : S_TEXT/UTF8
Идентификатор кодека/Информация : UTF-8 Plain Text
Язык : Russian
Default : Да
Forced : Нет
Текст #2
Идентификатор : 5
Формат : UTF-8
Идентификатор кодека : S_TEXT/UTF8
Идентификатор кодека/Информация : UTF-8 Plain Text
Язык : English
Default : Нет
Forced : Нет

Скриншоты










Скринлист

Файл дополнительно залит на ОБЛАКО
Prospect 2014.x264.WEBRip-1080p.Rus.kosmoaelita.mkv.torrent
Torrent: Registered [ 2019-02-11 05:10 ]

Download .torrent

Download

4 KB

Status: checked
Completed: 2 times
Size: 390 MB
 


Last edited by kosmoaelita2 on 2019-02-11 05:15; edited 1 time in total
[Profile] [PM]

kosmoaelita2 ®

Gender: Male

Longevity: 6 years 6 months

Posts: 645

Post 11-Feb-2019 05:13 (after 3 minutes)

[Quote]

Полнометражка
http://kosmoaelita.com/viewtopic.php?t=2660
[Profile] [PM]
Display posts:    
Reply to topic

Current time is: 22-Apr 13:39

All times are UTC + 3.5



You cannot post new topics in this forum
You cannot reply to topics in this forum
You cannot edit your posts in this forum
You cannot delete your posts in this forum
You cannot vote in polls in this forum
You cannot attach files in this forum
You can download files in this forum