Белка и Ёжик / 다람이와 고슴도치 / A Squirrel And The Hedgehog / Сезон: 1 / Серии: 1-32 из 32 [1977-2015, приключения, военный, DVDRip, TVRip] (rus sub)

Reply to topic
DL-List and Torrent activity
Size:  5.58 GB   |    Registered:  3 months 16 days   |    Completed:  1 time

Seeder not seen: 29 days

 
   
 
 
 
Author Message

Faer ®

Gender: Male

Longevity: 4 years 4 months

Posts: 344

Location: Сербия

Post 10-Feb-2019 12:30

[Quote]

Белка и Ёжик / 다람이와 고슴도치 / A Squirrel And The Hedgehog
Год выпуска: 1977-2015
Страна: КНДР
Жанр: приключения, военный
Продолжительность: 32 х 00:20:21
Перевод: субтитры
Русские субтитры: есть
Автор перевода: ???
Описание: Этот милитаризированный мультик производства КНДР рассказывает о храбрых бойцах: Рыжике и Ёжике, которые защищают свой Цветочный Холм от банды злых хорьков. Вас ожидают массовые баталии, головокружительные сражения и тщательные расследования, в результате которых герои обязательно найдут и расправятся с вражескими шпионами!
Качество: DVDRip (1-26), TVRip (27-32)
Формат: MKV
Видео кодек: MPEG4
Аудио кодек: AAC
Видео 1-26: AVC, 750*576, 5:4, 25 fps, 814 Кбит/с
Видео 27-32: AVC, 636*480, 4:3, 25 fps, 660 Кбит/с
Аудио: ААС, 44.1кГц, 128 Кбит/с, стерео

MediaInfo 1-26

Общее
Полное имя : G:\Бурундук и Ёжик Глава 1 Субтитры.mp4
Формат : MPEG-4
Профиль формата : Base Media
Идентификатор кодека : isom (isom/iso2/avc1/mp41)
Размер файла : 142 Мбайт
Продолжительность : 19 м. 41 с.
Общий поток : 1009 Кбит/сек
Программа кодирования : Lavf57.83.100
Видео
Идентификатор : 1
Формат : AVC
Формат/Информация : Advanced Video Codec
Профиль формата : High@L3
Настройки формата : CABAC / 4 Ref Frames
Параметр CABAC формата : Да
Параметр RefFrames формата : 4 кадра
Идентификатор кодека : avc1
Идентификатор кодека/Информация : Advanced Video Coding
Продолжительность : 19 м. 41 с.
Битрейт : 814 Кбит/сек
Ширина : 658 пикселей
Высота : 576 пикселей
Соотношение сторон : 5:4
Соотношение сторон в оригинале : 5:4
Режим частоты кадров : Постоянный
Частота кадров : 25,000 кадров/сек
Цветовое пространство : YUV
Субдискретизация насыщенности : 4:2:0
Битовая глубина : 8 бит
Тип развёртки : Прогрессивная
Бит/(Пиксели*Кадры) : 0.086
Размер потока : 114 Мбайт (80%)
Библиотека кодирования : x264 core 148
Настройки программы : cabac=1 / ref=2 / deblock=1:0:0 / analyse=0x3:0x113 / me=hex / subme=6 / psy=1 / psy_rd=1.00:0.00 / mixed_ref=1 / me_range=16 / chroma_me=1 / trellis=1 / 8x8dct=1 / cqm=0 / deadzone=21,11 / fast_pskip=1 / chroma_qp_offset=-2 / threads=6 / lookahead_threads=1 / sliced_threads=0 / nr=0 / decimate=1 / interlaced=0 / bluray_compat=0 / constrained_intra=0 / bframes=3 / b_pyramid=2 / b_adapt=1 / b_bias=0 / direct=1 / weightb=1 / open_gop=0 / weightp=1 / keyint=250 / keyint_min=25 / scenecut=40 / intra_refresh=0 / rc_lookahead=30 / rc=2pass / mbtree=1 / bitrate=814 / ratetol=1.0 / qcomp=0.60 / qpmin=0 / qpmax=69 / qpstep=4 / cplxblur=20.0 / qblur=0.5 / vbv_maxrate=814 / vbv_bufsize=1628 / nal_hrd=none / filler=0 / ip_ratio=1.40 / aq=1:1.00
Codec configuration box : avcC
Аудио
Идентификатор : 2
Формат : AAC LC
Формат/Информация : Advanced Audio Codec Low Complexity
Идентификатор кодека : mp4a-40-2
Продолжительность : 19 м. 41 с.
Вид битрейта : Постоянный
Битрейт : 192 Кбит/сек
Каналы : 2 канала
Channel layout : L R
Частота : 44,1 КГц
Частота кадров : 43,066 кадра/сек (1024 SPF)
Метод сжатия : С потерями
Размер потока : 27,0 Мбайт (19%)
Default : Да
AlternateGroup/String : 1

MediaInfo 27-32

Общее
Полное имя : G:\Аниме с переводом\Бурундук и Ёжик\Бурундук и ёжик. Серия 30 (субтитры).mp4
Формат : MPEG-4
Профиль формата : Base Media
Идентификатор кодека : isom (isom/iso2/avc1/mp41)
Размер файла : 106 Мбайт
Продолжительность : 17 м. 59 с.
Общий поток : 823 Кбит/сек
Программа кодирования : Lavf57.83.100
Видео
Идентификатор : 1
Формат : AVC
Формат/Информация : Advanced Video Codec
Профиль формата : High@L3
Настройки формата : CABAC / 4 Ref Frames
Параметр CABAC формата : Да
Параметр RefFrames формата : 4 кадра
Идентификатор кодека : avc1
Идентификатор кодека/Информация : Advanced Video Coding
Продолжительность : 17 м. 59 с.
Битрейт : 660 Кбит/сек
Ширина : 636 пикселей
Высота : 480 пикселей
Соотношение сторон : 4:3
Режим частоты кадров : Постоянный
Частота кадров : 25,000 кадров/сек
Цветовое пространство : YUV
Субдискретизация насыщенности : 4:2:0
Битовая глубина : 8 бит
Тип развёртки : Прогрессивная
Бит/(Пиксели*Кадры) : 0.086
Размер потока : 84,4 Мбайт (80%)
Библиотека кодирования : x264 core 148
Настройки программы : cabac=1 / ref=2 / deblock=1:0:0 / analyse=0x3:0x113 / me=hex / subme=6 / psy=1 / psy_rd=1.00:0.00 / mixed_ref=1 / me_range=16 / chroma_me=1 / trellis=1 / 8x8dct=1 / cqm=0 / deadzone=21,11 / fast_pskip=1 / chroma_qp_offset=-2 / threads=6 / lookahead_threads=1 / sliced_threads=0 / nr=0 / decimate=1 / interlaced=0 / bluray_compat=0 / constrained_intra=0 / bframes=3 / b_pyramid=2 / b_adapt=1 / b_bias=0 / direct=1 / weightb=1 / open_gop=0 / weightp=1 / keyint=250 / keyint_min=25 / scenecut=40 / intra_refresh=0 / rc_lookahead=30 / rc=cbr / mbtree=1 / bitrate=660 / ratetol=1.0 / qcomp=0.60 / qpmin=0 / qpmax=69 / qpstep=4 / vbv_maxrate=660 / vbv_bufsize=1320 / nal_hrd=none / filler=0 / ip_ratio=1.40 / aq=1:1.00
Codec configuration box : avcC
Аудио
Идентификатор : 2
Формат : AAC LC
Формат/Информация : Advanced Audio Codec Low Complexity
Идентификатор кодека : mp4a-40-2
Продолжительность : 17 м. 59 с.
Вид битрейта : Постоянный
Битрейт : 160 Кбит/сек
Каналы : 2 канала
Channel layout : L R
Частота : 44,1 КГц
Частота кадров : 43,066 кадра/сек (1024 SPF)
Метод сжатия : С потерями
Размер потока : 20,6 Мбайт (19%)
Default : Да
AlternateGroup/String : 1

Скринлисты


cd Рип дополнительно залит на mail.ru cd2
j.torrent
Torrent: Registered [ 2019-02-10 14:40 ]

Download .torrent

Download

115 KB

Status: checked
Completed: 1 times
Size: 5.58 GB
 


Last edited by Faer on 2019-02-10 14:40; edited 4 times in total
[Profile] [PM]

Faer ®

Gender: Male

Longevity: 4 years 4 months

Posts: 344

Location: Сербия

Post 10-Feb-2019 12:49 (after 18 minutes)

[Quote]

Тут все серии с русскими субтитрами, и в более лучшем качестве (1-26 - рип с оригинального DVD).
[Profile] [PM]

Трамвай-фильм

Gender: Male

Longevity: 4 years 9 months

Posts: 1454

Location: Россия

Post 10-Feb-2019 15:33 (after 2 hours 43 minutes)

[Quote]

21583Тут все серии с русскими субтитрами, и в более лучшем качестве (1-26 - рип с оригинального DVD).
Наконец-то закончен этот проект.
PS что там с гатчамии 3 сезон?
[Profile] [PM]

croMAG

Gender: Male

Longevity: 3 years 8 months

Posts: 2137

Location: Прибалтика

Post 10-Feb-2019 16:20 (after 46 minutes)

[Quote]

О. е. мое.
[Profile] [PM]

Faer ®

Gender: Male

Longevity: 4 years 4 months

Posts: 344

Location: Сербия

Post 10-Feb-2019 18:16 (after 1 hour 56 minutes)

[Quote]

21584
21583Тут все серии с русскими субтитрами, и в более лучшем качестве (1-26 - рип с оригинального DVD).
Наконец-то закончен этот проект.
PS что там с гатчамии 3 сезон?
А что с ними? У меня остались 7 серий озвученных.
[Profile] [PM]

Трамвай-фильм

Gender: Male

Longevity: 4 years 9 months

Posts: 1454

Location: Россия

Post 10-Feb-2019 19:40 (after 1 hour 23 minutes)

[Quote]

21586
21584
21583Тут все серии с русскими субтитрами, и в более лучшем качестве (1-26 - рип с оригинального DVD).
Наконец-то закончен этот проект.
PS что там с гатчамии 3 сезон?
А что с ними? У меня остались 7 серий озвученных.
Я писал в декабре, что 3 сезон издали по лицухе, там все серии с субами, предлагал купить DVD, софинансируя проект. Но вы отписались, что будет RIP на каком-то сайте. ВОт как есть рип?
[Profile] [PM]

Faer ®

Gender: Male

Longevity: 4 years 4 months

Posts: 344

Location: Сербия

Post 10-Feb-2019 19:42 (after 2 minutes)

[Quote]

21587 Я писал в декабре, что 3 сезон издали по лицухе, там все серии с субами, предлагал купить DVD, софинансируя проект. Но вы отписались, что будет RIP на каком-то сайте. ВОт как есть рип?
Да, рип есть... Только там 1080p видео, 60 гиг весит. Выкачиваю как раз. На след. неделе буду смотреть, подойдёт звук или нет.
[Profile] [PM]

Трамвай-фильм

Gender: Male

Longevity: 4 years 9 months

Posts: 1454

Location: Россия

Post 10-Feb-2019 20:51 (after 1 hour 9 minutes)

[Quote]

Faer, о, дякую.
21585О. е. мое.
Ром, я всё помню, будет тебе театр. Ща - добьём сказки и будем пилить полегоньку.
Вообще забавная штука получается, как только думаешь: ну всё, приплыли, блин, не над чем больше работать, так тут же, как из мешка, начинает сыпаться всякая всячина, и работы еще на год вперед оказывается.
PS у мню 2 игровых сериала есть, 2 анимационных, нет 4, в общей сложности, и 2 полнометражки, это не считая Кромагского проекта и того, что нам недавно Омен подкинул, и плюс на переделку своих трудов хотел бы еще 3 фильма взять (там некритичные ошибки перевода, но подштриховать бы неплохо)
[Profile] [PM]

croMAG

Gender: Male

Longevity: 3 years 8 months

Posts: 2137

Location: Прибалтика

Post 11-Feb-2019 14:25 (after 17 hours)

[Quote]

Хммм Дааа уж. А Омен много тебе подкинул? Это я так ради любопытства.
[Profile] [PM]

Трамвай-фильм

Gender: Male

Longevity: 4 years 9 months

Posts: 1454

Location: Россия

Post 11-Feb-2019 17:09 (after 2 hours 43 minutes)

[Quote]

21595Хммм Дааа уж. А Омен много тебе подкинул? Это я так ради любопытства.
Мне лично пока ничего, он отписался недавно в теме переводов, малобюджекту нарыл Night Fright (1967)
[Profile] [PM]
Quick Reply

Name:

            
Heads necessary to send messages to enable JavaScript
Display posts:    
Reply to topic

Current time is: 26-May 19:21

All times are UTC + 3



You can post new topics in this forum
You can reply to topics in this forum
You cannot edit your posts in this forum
You cannot delete your posts in this forum
You cannot vote in polls in this forum
You cannot attach files in this forum
You can download files in this forum