Земной апокалипсис / AE: Apocalypse Earth / AE Apocalypse Earth (Тандер Левин / Thunder Levin) [2013, США, фантастика, боевик, BDRip-1080p] ЛО (datynet), СТ (anton1)

Reply to topic
 
Author Message

kosmoaelita2 ®

Gender: Male

Longevity: 6 years 7 months

Posts: 723

Post 07-Feb-2019 20:18

[Quote]

Земной апокалипсис / AE: Apocalypse Earth / AE Apocalypse Earth
Страна: США, The Asylum
Жанр: фантастика, боевик
Год выпуска: 2013
Продолжительность: 01:27:21
Перевод: Любительский (одноголосый) datynet по субтитрам от anton1
Режиссер: Тандер Левин / Thunder Levin
В ролях:
Adrian Paul ... Lt. Frank Baum
Richard Grieco ... Capt. Sam Crowe
Bali Rodriguez ... Lea
Gray Hawks ... TIM
Jay Cardell ... Sgt. Peebles
Daniel Ross Mix ... Colin
Michelle Jones ... Hannah
Erika Hidalgo ... Victoria
Jessica Russo ... Cassie
Martin Adebisi ... Young Buck (as Marin Esq.)
Winston Washington ... Honda
Steve Bencich ... Jason
Erik Werther ... Arlo
Luna Lunerisima ... Humanoid Queen
Cesar Alvarado ... Humanoid Advisor
Описание: Группа кочевников с Земли высаживается на неизведанной планете. Чтобы выжить, им приходится сражаться с обитающими там инопланетянами... Из-за того что землю атакует армада пришельцев жизнь на ней становиться практически невыносимой и небольшая группа людей во главе с лейтенантом Фреэком Баумом (Эдриан Пол) и капитаном Сэмом Кроу (Ричард Греко) покидают планету, оставив всё то что им было так дорого, прорываясь через вражеские корабли и отправляется в поисках нового дома в глубины космоса. Приближаясь к новой планете корабль терпит крушение и часть его пассажиров погибает, но на этом беды ещё не заканчиваются! Людей явно никто не ждал и теперь колонистам приходится отбиваться от невидимых пришельцев, местных аборигенов и гигантских чудищ. Но Фрэнку удаётся подружиться с одной из местных жительниц и она готова теперь помочь людям. Сумеют ли люди приспособиться в новом мире?
Качество видео: BDRip-1080p
Формат: MKV
Видео: x264, 9222 кбит/с, 1920x1080, 23.976 к/с
Аудио 1: Русский (DTS, 6 ch, 1510 Кбит/с)
Аудио 2: Українська (AC3, 2 ch, 224 Кбит/с)
Аудио 3: Английский (DTS, 6 ch, 1510 Кбит/с)
Субтитры : Русские (anton1), английские
Работа над релизом:
Видеоряд найден на rarbg2018.org
Синхронизация русской дорожки - kosmoaelita



Пример русского перевода

Дополнительно

бюджет $1 000 000
Also Known As (AKA)
(original title) AE: Apocalypse Earth
Hungary A Föld után: Apokalipszis
Poland Apokalipsa Ziemi
Poland (alternative title) Ziemska apokalipsa
Russia Земной апокалипсис

Знаете ли вы, что...

Отзывы

Очень даже неплохой фильм, гораздо лучше всякого хлама типа трансформеров! В нем есть смысл и содержание, законы физики практически не нарушаются, да и игра актеров я бы не сказал, что плохая. Я с удовольствием посмотрел. Жаль только, что перевод одноголосый... Если появится дубляж или хотя бы нормальный многоголосый перевод, обязательно пересмотрю!
-------------------------------
оконцовочка не совсем ожидаемая для "дешевого" фильма....
Горец - как всегда - на высоте
Asylum жжетт
------------------------------
Горец в в треше начал сниматься, мде...
------------------------------

Рецензия

В поисках нового мира
Про фильм «Земной апокалипсис» от Asylum уже слышал довольно давно, но только совсем недавно довелось его посмотреть. На этот раз у создателей получилась помесь «Аватара» и «После земли».
Из-за того что землю атакует армада пришельцев жизнь на ней становиться практически невыносимой и небольшая группа людей во главе с лейтенантом Фреэком Баумом (Эдриан Пол) и капитаном Сэмом Кроу (Ричард Греко) покидают планету, оставив всё то что им было так дорого, прорываясь через вражеские корабли и отправляется в поисках нового дома в глубины космоса. Приближаясь к новой планете корабль терпит крушение и часть его пассажиров погибает, но на этом беды ещё не заканчиваются! Людей явно никто не ждал и теперь колонистам приходится отбиваться от невидимых пришельцев, местных аборигенов и гигантских чудищ. Но Фрэнку удаётся подружиться с одной из местных жительниц и она готова теперь помочь людям. Сумеют ли люди приспособиться в новом мире?
Космические пейзажи, корабли и их интерьеры выглядят очень дёшево так-же как и монстры, понравились только джунгли в которых проходили съёмки данного творения, пожалуй только они немного вытянули фильм, видимо бюджета у этой ленты не было совсем.
Игра актёров весьма неплохая, Ричард Греко ("Ночь в Роксбери», «Болт», «Сладкая месть») и Эдриан Пол составили весьма неплохой дуэт, но к сожалению эти два актёра весьма популярные много лет назад довольно часто снимаются в подобного рода фильмах, поэтому их наличие здесь совсем не удивляет, ещё очень понравилась исполнительница роли местной жительницы, весьма красивая актриса.
Ещё из положительных моментов в фильме стоит отметить весьма необычную концовку.
В итоге фильм даже совсем немного превзошёл ожидания, в целом это далеко не самый плохой представитель жанра научной фантастики, жаль что по времени не так долго идёт.
5 из 10

MediaInfo

Общее
Уникальный идентификатор : 201824261305700639234119021705385250257 (0x97D5F05781BFC69BAE4B38A1DCD48DD1)
Полное имя : H:\НА ПЕРЕЗАПИСЬ В АРХИВ\AE.Apocalypse.Earth.2013.1080p.BluRay.x264-SONiDO\AE Apocalypse Earth 2013.x264.BDRip.1080p.Rus.Ukr.kosmoaelita.mkv
Формат : Matroska
Версия формата : Version 4 / Version 2
Размер файла : 7,54 Гбайт
Продолжительность : 1 ч. 27 м.
Общий поток : 12,4 Мбит/сек
Название фильма : AE: Apocalypse Earth / 2013 / kosmoaelita
Дата кодирования : UTC 2019-02-03 18:12:13
Программа кодирования : mkvmerge v6.6.0 ('The Edge Of The In Between') built on Dec 1 2013 17:55:00
Библиотека кодирования : libebml v1.3.0 + libmatroska v1.4.1
Attachments : poster.jpg
Видео
Идентификатор : 1
Формат : AVC
Формат/Информация : Advanced Video Codec
Профиль формата : High@L4.1
Параметр CABAC формата : Да
Параметр ReFrames формата : 4 кадра
Идентификатор кодека : V_MPEG4/ISO/AVC
Продолжительность : 1 ч. 27 м.
Битрейт : 9222 Кбит/сек
Ширина : 1920 пикселей
Высота : 1080 пикселей
Соотношение сторон : 16:9
Режим частоты кадров : Постоянный
Частота кадров : 23,976 (24000/1001) кадра/сек
Цветовое пространство : YUV
Субдискретизация насыщенности : 4:2:0
Битовая глубина : 8 бит
Тип развёртки : Прогрессивная
Бит/(Пиксели*Кадры) : 0.185
Размер потока : 5,41 Гбайт (72%)
Библиотека кодирования : x264 core 130 r2273 b3065e6
Настройки программы : cabac=1 / ref=4 / deblock=1:-3:-3 / analyse=0x3:0x133 / me=umh / subme=10 / psy=1 / psy_rd=1.00:0.00 / mixed_ref=1 / me_range=32 / chroma_me=1 / trellis=2 / 8x8dct=1 / cqm=0 / deadzone=21,11 / fast_pskip=1 / chroma_qp_offset=-2 / threads=36 / lookahead_threads=8 / sliced_threads=0 / nr=0 / decimate=1 / interlaced=0 / bluray_compat=0 / constrained_intra=0 / bframes=11 / b_pyramid=2 / b_adapt=2 / b_bias=0 / direct=3 / weightb=1 / open_gop=0 / weightp=2 / keyint=240 / keyint_min=23 / scenecut=40 / intra_refresh=0 / rc=abr / mbtree=0 / bitrate=9222 / ratetol=1.0 / qcomp=0.90 / qpmin=0 / qpmax=69 / qpstep=4 / ip_ratio=1.40 / pb_ratio=1.30 / aq=2:0.90
Язык : English
Default : Да
Forced : Нет
Аудио #1
Идентификатор : 2
Формат : DTS
Формат/Информация : Digital Theater Systems
Режим : 16
Параметр Endianness формата : Big
Идентификатор кодека : A_DTS
Продолжительность : 1 ч. 27 м.
Вид битрейта : Постоянный
Битрейт : 1510 Кбит/сек
Каналы : 6 каналов
Расположение каналов : Front: L C R, Side: L R, LFE
Частота : 48,0 КГц
Частота кадров : 93,750 кадра/сек (512 spf)
Битовая глубина : 24 бит
Метод сжатия : С потерями
Задержка видео : 1 мс.
Размер потока : 943 Мбайт (12%)
Заголовок : Русский ЛО (datynet) по субтитрам от anton1
Язык : Russian
Default : Да
Forced : Нет
Аудио #2
Идентификатор : 3
Формат : AC-3
Формат/Информация : Audio Coding 3
Расширение режима : CM (complete main)
Параметр Endianness формата : Big
Идентификатор кодека : A_AC3
Продолжительность : 1 ч. 27 м.
Вид битрейта : Постоянный
Битрейт : 224 Кбит/сек
Каналы : 2 канала
Расположение каналов : Front: L R
Частота : 48,0 КГц
Частота кадров : 31,250 кадров/сек (1536 spf)
Метод сжатия : С потерями
Размер потока : 140 Мбайт (2%)
Заголовок : Украинский ПД (2+2)
Язык : Ukrainian
Default : Нет
Forced : Нет
Аудио #3
Идентификатор : 4
Формат : DTS
Формат/Информация : Digital Theater Systems
Режим : 16
Параметр Endianness формата : Big
Идентификатор кодека : A_DTS
Продолжительность : 1 ч. 27 м.
Вид битрейта : Постоянный
Битрейт : 1509 Кбит/сек
Каналы : 6 каналов
Расположение каналов : Front: L C R, Side: L R, LFE
Частота : 48,0 КГц
Частота кадров : 93,750 кадра/сек (512 spf)
Битовая глубина : 24 бит
Метод сжатия : С потерями
Размер потока : 943 Мбайт (12%)
Заголовок : DTS
Язык : English
Default : Нет
Forced : Нет
Текст #1
Идентификатор : 5
Формат : PGS
Режим смешивания : zlib
Идентификатор кодека : S_HDMV/PGS
Идентификатор кодека/Информация : Picture based subtitle format used on BDs/HD-DVDs
Заголовок : Русский (anton1) .PGS
Язык : Russian
Default : Да
Forced : Нет
Текст #2
Идентификатор : 6
Формат : UTF-8
Идентификатор кодека : S_TEXT/UTF8
Идентификатор кодека/Информация : UTF-8 Plain Text
Заголовок : Русский (anton1) .srt
Язык : Russian
Default : Нет
Forced : Нет
Текст #3
Идентификатор : 7
Формат : VobSub
Режим смешивания : zlib
Идентификатор кодека : S_VOBSUB
Идентификатор кодека/Информация : Picture based subtitle format used on DVDs
Заголовок : Yellow
Язык : English
Default : Нет
Forced : Нет
Меню
00:00:00.000 : :Chapter 1
00:05:00.000 : :Chapter 2
00:10:00.000 : :Chapter 3
00:15:00.000 : :Chapter 4
00:20:00.000 : :Chapter 5
00:25:00.000 : :Chapter 6
00:30:00.000 : :Chapter 7
00:35:00.000 : :Chapter 8
00:40:00.000 : :Chapter 9
00:45:00.000 : :Chapter 10
00:50:00.000 : :Chapter 11
00:55:00.000 : :Chapter 12
01:00:00.000 : :Chapter 13
01:05:00.000 : :Chapter 14
01:10:00.000 : :Chapter 15
01:15:00.000 : :Chapter 16
01:20:00.000 : :Chapter 17
01:25:00.000 : :Chapter 18

Пример субтитров

1
00:00:02,579 --> 00:00:08,052
АСИЛУМ
представляет
2
00:00:10,514 --> 00:00:17,443
"ЗЕМНОЙ АПОКАЛИПСИС"
(AE: Apocalypse Earth, 2013г)
3
00:00:25,421 --> 00:00:28,698
Это охраняемая зона.
Для вашей безопасности отойдите...
4
00:00:28,716 --> 00:00:31,253
...от космического корабля.
Избранные - займите свои места...
5
00:00:31,368 --> 00:00:32,631
...на борту "Альберта Эйнштейна"
6
00:00:34,514 --> 00:00:36,619
Добро пожаловать на борт
Последнего Исхода.
--------------------------
762
01:21:13,644 --> 01:21:15,123
И будем адаптироваться.
763
01:21:15,146 --> 01:21:16,420
Как?
764
01:21:18,608 --> 01:21:20,758
Мы заберём свой мир обратно.
765
01:21:22,820 --> 01:21:26,427
Это будет долгий, долгий бой.
766
01:21:27,784 --> 01:21:32,984
Да, но нет лучшего места, чем дом.

Скриншоты



















Скринлист

Файл дополнительно залит на ОБЛАКО
[Profile] [PM]
Display posts:    
Reply to topic

Current time is: 26-May 18:07

All times are UTC + 3



You cannot post new topics in this forum
You cannot reply to topics in this forum
You cannot edit your posts in this forum
You cannot delete your posts in this forum
You cannot vote in polls in this forum
You cannot attach files in this forum
You cannot download files in this forum