Армагеддон пришельцев / Alien Armageddon / Battleground Los Angeles (Нил Джонсон / Neil Johnson) [2011, Великобритания, США, Фантастика, BDRip-1080p] ЛД ()

Reply to topic
 
Author Message

kosmoaelita2 ®

Gender: Male

Longevity: 6 years 10 months

Posts: 743

Post 28-Jan-2019 10:07

[Quote]

Армагеддон пришельцев / Alien Armageddon / Battleground Los Angeles
Страна: Великобритания, США, Morphius Film, Starlight Entertainment
Жанр: Фантастика
Год выпуска: 2011
Продолжительность: 01:36:10
Перевод: Любительский (двухголосый)
Режиссер: Нил Джонсон / Neil Johnson
В ролях:
Katharine Lee McEwan ... Jodie Elliott (as Katharine McEwan)
Marilyn Ghigliotti ... Macy
Cynthia Martin ... Stepmom
Tiffany Martin ... Jodie's Daughter
Don Scribner ... Cowboy
Rochelle Vallese ... Franci
Benjamin J. Cain Jr. ... Markus
Virginia Hey ... Ute
Julia Parker ... Dr. Brenna
Will Tulin ... Sheen (as William David Tulin)
Claudia Wells ... Eileen Daly
Rest of cast listed alphabetically:
DeeDee Bigelow ... Maxine
Justin Cornwell ... Nephilim Soldier 1
Patrick Donegan ... Nephilim Soldier 4
Duff Dugan ... Governor Brent
Описание: Заключительная часть трилогии о Нифелимах.
Молодая женщина по имени Джуди Эллиот пытается найти свою дочь в полуразрушенном Лос-Анджелесе, который контролируется армией пришельцев, напавшей на Землю. Нефилимы - падшие ангелы - были упомянуты еще в Библии. Многие годы существования человеческой расы они наблюдали за нами при помощи НЛО, которые неоднократно были замечены в разных местах планеты. И теперь они вернулись на Землю, чтобы проводить над людьми генетические эксперименты. Все крупные города планеты разрушены, и спасти нашу любимую Землю от инопланетных интервентов в состоянии только команда героев-ковбоев...

Качество видео: BDRip-1080p
Формат: MKV
Видео: x264, 8993 кбит/с, 1920x1016, 23.976 к/с
Аудио 1: Русский (AC3, 6 ch, 640 Кбит/с)
Аудио 2: Английский (DTS, 6 ch, 768 Кбит/с)
Работа над релизом:
Видеоряд найден на rarbg2018.org
Синхронизация русской дорожки - kosmoaelita



Пример русского перевода

Дополнительно

бюджет $870 000
Also Known As (AKA)
(original title) Alien Armageddon
Brazil Alien Armageddon
Poland Armageddon obcych
Russia Армагеддон пришельцев
USA (working title) Battleground Los Angeles

Знаете ли вы, что...

From 2005-2007, he shot an additional 20 minutes for the first 2 films, re-cut them, updated the effects, re-sized the films up to high definition and renamed the films.
1. Nephilim (2007) aka Demons In My Head (1998)
2. Bipolar Armageddon (2009) aka To Become One (2002)
3. Alien Armageddon (2011)

Отзывы

Morphius Film - достойный продолжатель Asylum...
----------------------
Студия: Morphius Film никогда не радовала своими шедеврами(((
Аналог конторы "The Asylum"
-------------------------------
Фильм рассказывает историю Джуди Эллиот, молодой женщины, которая пытается найти свою дочь в городе захваченным пришельцами. Нефилимы были упомянуты ещё в Библии, как раса падших ангелов охотившихся на людей. Теперь они вернулись, чтобы проводить генетические эксперименты над людьми.
-----------------------------------------
The battle for Los Angelles has begun" ОПЯТЬ?!
Бедный LA, инопланетяне туда так и сыпятся! Может там у них какой-нибудь тектонический разлом?
----------------------------------------------
жесть... ковбои против пришельцев устроили армагеддон пришельцам при битве за лос-анжелес... вот это псих режиссер. сворганил за пару месяцев
--------------------------------------------
- а если посмотреть дотерпеть до конца) - МЕГА дерьмо. Такое впечтатление что все от сценариста до режиссера и продюсера - тупейшие феминистки. Женская логика в поступках, все герои - тупые курицы, роль мужчин - третеспепенный саппорт или "жертвы". Вобщем девиз фильма - тупые курицы побеждают еще более тупых пришельцев (которые непонятно как смогли покорить космос с таким интеллектом).
Д Е Р Ь М О!
------------------------------------------------
Arakin4 писал(а):
Это - заключительная часть трилогии "Нефилимы".
1. Nephilim (2007)
2. Bipolar Armageddon (2009)
3. Alien Armageddon (2011)
Первые два фильма на русский язык не переводились, на BD не издавались.
Собственно они частично переводились, ибо являются ремастингом более ранних
From 2005-2007, he shot an additional 20 minutes for the first 2 films, re-cut them, updated the effects, re-sized the films up to high definition and renamed the films.[citation needed] Demons In My Head is now called Nephilim and To Become One is called Bipolar Armageddon.

Рецензия

Тему фантастики, а особенно связанную с пришельцами, я люблю и интересуюсь каждой новинкой, стараясь знакомиться даже с работами не самых именитых режиссёров. Именно так и дошло дело до этого фильма. Кто такой Нил Джонсон я вообще не знаю, и не думаю, что вообще кто-то слышал о нём. Уверен, что после просмотра этого фильма, желание что-то о нём услышать вообще пропадёт.
Ибо это ужасно. Честно, я даже и не знаю толком, что можно написать о фильме, потому что он просто невероятно пустой и бессмысленный, в этом фильме нет вообще ничего — нет идеи, нет сюжета, нет смысла, нет хоть ну какой-то актёрской игры, а спец. эффекты… Увольте.
Я думаю, что все знают кудесников из Asylum. Не каждый, возможно, имеет терпение посмотреть хоть один их «шедевр», но те, кто видел поймут о чём я напишу. Ребята из Асилиума не очень сильно заморачиваются на счёт создания своих творений, как правило они берут за основу свежий блокбастер и снимают его на свой лад, используя при этом бюджет в несколько десятков раз меньше — на выходе — глупое и нелепое смешное и чудное развлечение. Но всё же не лишённое какой-то изюминки и интереса, есть в их фильмах что-то… Так вот, я это к тому, что работа этого самого Нила настолько убога и несчастна, что не годиться даже в подмётки фильмам студии Асилиум. Собственно, даже не знаю, что ещё можно добавить, этим уже всё сказано.
Что могу сказать в итоге. «Вторжение пришельцев» — непонятная провальная по всем статьям жалкая попытка какого-то аматора снять подобие фантастики. Прошу даже не тратить время, даже любителям треша и подобных жанров — не тратьте время.
2 из 10

Медиаинфо

Общее
Уникальный идентификатор : 236071881442646643517112706404428678422 (0xB199CA6179222D5BBB850928FEB60516)
Полное имя : Alien.Armageddon.aka.Battleground.Los.Angeles.2011.1080p.BluRay.x264-VETO\Alien Armageddon 2011.x264.BDRip.1080p.Rus.kosmoaelita.mkv
Формат : Matroska
Версия формата : Version 4 / Version 2
Размер файла : 6,99 Гбайт
Продолжительность : 1 ч. 36 м.
Общий поток : 10,4 Мбит/сек
Название фильма : Alien Armageddon aka Battleground Los Angeles / 2011 / kosmoaelita
Дата кодирования : UTC 2019-01-26 20:49:09
Программа кодирования : mkvmerge v6.6.0 ('The Edge Of The In Between') built on Dec 1 2013 17:55:00
Библиотека кодирования : libebml v1.3.0 + libmatroska v1.4.1
Attachments : POSTER.jpg
Видео
Идентификатор : 1
Формат : AVC
Формат/Информация : Advanced Video Codec
Профиль формата : High@L4.1
Параметр CABAC формата : Да
Параметр ReFrames формата : 4 кадра
Идентификатор кодека : V_MPEG4/ISO/AVC
Продолжительность : 1 ч. 36 м.
Битрейт : 8993 Кбит/сек
Ширина : 1920 пикселей
Высота : 1016 пикселей
Соотношение сторон : 1,890
Режим частоты кадров : Постоянный
Частота кадров : 23,976 (24000/1001) кадра/сек
Цветовое пространство : YUV
Субдискретизация насыщенности : 4:2:0
Битовая глубина : 8 бит
Тип развёртки : Прогрессивная
Бит/(Пиксели*Кадры) : 0.192
Размер потока : 5,90 Гбайт (84%)
Заголовок : http://kosmoaelita.com/viewtopic.php?t=2657
Библиотека кодирования : x264 core 129 r2245 bc13772
Настройки программы : cabac=1 / ref=4 / deblock=1:0:0 / analyse=0x3:0x133 / me=umh / subme=7 / psy=1 / psy_rd=1.00:0.00 / mixed_ref=1 / me_range=16 / chroma_me=1 / trellis=1 / 8x8dct=1 / cqm=0 / deadzone=21,11 / fast_pskip=0 / chroma_qp_offset=-2 / threads=6 / lookahead_threads=1 / sliced_threads=0 / nr=0 / decimate=1 / interlaced=0 / bluray_compat=0 / constrained_intra=0 / bframes=3 / b_pyramid=2 / b_adapt=1 / b_bias=0 / direct=1 / weightb=1 / open_gop=0 / weightp=2 / keyint=240 / keyint_min=23 / scenecut=40 / intra_refresh=0 / rc_lookahead=40 / rc=2pass / mbtree=1 / bitrate=8993 / ratetol=1.0 / qcomp=0.60 / qpmin=10 / qpmax=69 / qpstep=4 / cplxblur=20.0 / qblur=0.5 / ip_ratio=1.40 / aq=1:1.00
Язык : English
Default : Да
Forced : Нет
Аудио #1
Идентификатор : 2
Формат : AC-3
Формат/Информация : Audio Coding 3
Расширение режима : CM (complete main)
Параметр Endianness формата : Big
Идентификатор кодека : A_AC3
Продолжительность : 1 ч. 36 м.
Вид битрейта : Постоянный
Битрейт : 640 Кбит/сек
Каналы : 6 каналов
Расположение каналов : Front: L C R, Side: L R, LFE
Частота : 48,0 КГц
Частота кадров : 31,250 кадров/сек (1536 spf)
Метод сжатия : С потерями
Размер потока : 440 Мбайт (6%)
Заголовок : Русский ЛД () AC3 5.1
Язык : Russian
Default : Да
Forced : Нет
Аудио #2
Идентификатор : 3
Формат : DTS
Формат/Информация : Digital Theater Systems
Режим : 16
Параметр Endianness формата : Big
Идентификатор кодека : A_DTS
Продолжительность : 1 ч. 36 м.
Вид битрейта : Постоянный
Битрейт : 768 Кбит/сек
Каналы : 6 каналов
Расположение каналов : Front: L C R, Side: L R, LFE
Частота : 48,0 КГц
Частота кадров : 93,750 кадра/сек (512 spf)
Битовая глубина : 16 бит
Метод сжатия : С потерями
Размер потока : 528 Мбайт (7%)
Язык : English
Default : Нет
Forced : Нет
Меню
00:00:00.000 : en:00:00:00.000
00:08:11.949 : en:00:08:11.949
00:16:03.963 : en:00:16:03.963
00:24:07.654 : en:00:24:07.654
00:32:12.931 : en:00:32:12.931
00:40:25.422 : en:00:40:25.422
00:48:03.505 : en:00:48:03.505
00:56:08.156 : en:00:56:08.156
01:05:13.075 : en:01:05:13.075
01:12:01.150 : en:01:12:01.150
01:20:11.807 : en:01:20:11.807
01:28:15.665 : en:01:28:15.665
01:36:08.763 : en:01:36:08.763

Скриншоты










Скринлист

]
Файл дополнительно залит на ОБЛАКО
[Profile] [PM]
Display posts:    
Reply to topic

Current time is: 21-Aug 02:27

All times are UTC + 3



You cannot post new topics in this forum
You cannot reply to topics in this forum
You cannot edit your posts in this forum
You cannot delete your posts in this forum
You cannot vote in polls in this forum
You cannot attach files in this forum
You cannot download files in this forum