В поисках Богов / Search for the Gods (Джад Тейлор / Jud Taylor) [1975, США, фантастика, драма, DVDRip] СТ (kosmoaelita-karlivanovich)

Reply to topic
 
Author Message

kosmoaelita2 ®

Gender: Male

Longevity: 7 years

Posts: 742

Post 22-Jan-2019 00:06

[Quote]

В поисках Богов / Search for the Gods
Страна: США, Douglas S. Cramer Company, Warner Bros. Television
Жанр: фантастика, драма
Год выпуска: 1975
Продолжительность: 01:37:07
Перевод: Субтитры kosmoaelita-karlivanovich
Режиссер: Джад Тейлор / Jud Taylor
В ролях:
Kurt Russell ... Shan Mullins
Stephen McHattie ... Willie Longfellow
Victoria Racimo ... Genara Juantez
Raymond St. Jacques ... Raymond Stryker
Albert Paulsen ... Tarkanian
Ralph Bellamy ... Dr. Henderson
John War Eagle ... Lucio
Carmen Argenziano ... Wheeler
Joe David Marcus ... Elder
Joe Marcus Jr. ... Council Indian
Larry J. Blake ... Jailer
Jackson D. Kane ... Glenn
Описание: Полнометражный пилот сериала. который так и не увидел продолжения.
Герои, по теории, должны были собрать 9 осколков неземного медальона.
Two young people search for a valuable medallion, which they believe will prove that aliens from outer space visited Earth in prehistoric times.

Релиз

Качество видео: DVDRip
Формат: MKV
Видео: x264, 1751 кбит/с, 704x500, 23.976 к/с, crf=17
Аудио 2: Английский (AC3, 2 ch, 192 Кбит/с)
Субтитры : Русские ()
Работа над релизом:
Релиз kosmoaelita.
Рип с ДВД5 с твваулта - kosmoaelita
Перевод на слух с англ. по заказу kosmoaelita - karlivanovich



Пример русского перевода

Дополнительно

Also Known As (AKA)
(original title) Search for the Gods
France La recherche des dieux
Italy Il medaglione del diavolo
Spain En busca de los dioses
Формат изображения: 1.33 : 1
Формат копии: 35 mm
Формат съёмок: 35 mm
Изображение: цветное
Язык: английский

Знаете ли вы, что...

Полнометражный пилот сериала, который не получил продолжения

Лог кодирования

MediaInfo

Общее
Уникальный идентификатор : 189329591513787374945353171499602455726 (0x8E6F8D8F25A526A988E1AAE2537CACAE)
Полное имя : F:\Downloads\0 НА ПЕРЕВОД\В ПРОЦЕССЕ\ГОТОВІ\Search for the Gods 1975.x264.DVDRip.kosmoaelita.mkv
Формат : Matroska
Версия формата : Version 4 / Version 2
Размер файла : 1,32 Гбайт
Продолжительность : 1 ч. 37 м.
Общий поток : 1947 Кбит/сек
Название фильма : В поисках Богов / Search for the Gods / 1975 / rip from NTSC DVD5 by kosmoaelita (2019-01-23), crf=17.11
Дата кодирования : UTC 2019-01-23 07:18:58
Программа кодирования : mkvmerge v6.6.0 ('The Edge Of The In Between') built on Dec 1 2013 17:55:00
Библиотека кодирования : libebml v1.3.0 + libmatroska v1.4.1
Attachments : VTS_01_1_001.mkv.encoding.log / POSTER.jpg
Видео
Идентификатор : 1
Формат : AVC
Формат/Информация : Advanced Video Codec
Профиль формата : High@L4.1
Параметр CABAC формата : Да
Параметр ReFrames формата : 8 кадров
Идентификатор кодека : V_MPEG4/ISO/AVC
Продолжительность : 1 ч. 37 м.
Битрейт : 1751 Кбит/сек
Ширина : 704 пикселя
Высота : 500 пикселей
Соотношение сторон : 1,408
Режим частоты кадров : Постоянный
Частота кадров : 23,976 (24000/1001) кадра/сек
Цветовое пространство : YUV
Субдискретизация насыщенности : 4:2:0
Битовая глубина : 8 бит
Тип развёртки : Прогрессивная
Бит/(Пиксели*Кадры) : 0.207
Размер потока : 1,16 Гбайт (88%)
Заголовок : http://kosmoaelita.com/viewtopic.php?t=2653
Библиотека кодирования : x264 core 130 r2273 b3065e6
Настройки программы : cabac=1 / ref=8 / deblock=1:-2:-2 / analyse=0x3:0x131 / me=umh / subme=11 / psy=1 / psy_rd=0.99:0.14 / mixed_ref=1 / me_range=24 / chroma_me=1 / trellis=2 / 8x8dct=1 / cqm=0 / deadzone=21,11 / fast_pskip=1 / chroma_qp_offset=-3 / threads=6 / lookahead_threads=1 / sliced_threads=0 / nr=0 / decimate=1 / interlaced=0 / bluray_compat=0 / constrained_intra=0 / bframes=8 / b_pyramid=2 / b_adapt=2 / b_bias=0 / direct=3 / weightb=1 / open_gop=0 / weightp=2 / keyint=210 / keyint_min=21 / scenecut=40 / intra_refresh=0 / rc_lookahead=80 / rc=2pass / mbtree=1 / bitrate=1751 / ratetol=1.0 / qcomp=0.65 / qpmin=0 / qpmax=69 / qpstep=4 / cplxblur=20.0 / qblur=0.5 / ip_ratio=1.25 / aq=1:0.90
Default : Да
Forced : Нет
Цветовой диапазон : Limited
Основные цвета : BT.601 NTSC
Характеристики трансфера : BT.601
Коэффициенты матрицы : BT.601
Statistics Tags Issue : mkvmerge v7.8.0 ('River Man') 32bit built on Mar 27 2015 16:18:02 2019-01-23 01:56:49 / mkvmerge v6.6.0 ('The Edge Of The In Between') built on Dec 1 2013 17:55:00 2019-01-23 07:18:58
FromStats_BitRate : 1751287
FromStats_Duration : 01:37:06.988000000
FromStats_FrameCount : 139708
FromStats_StreamSize : 1275591395
Аудио
Идентификатор : 2
Формат : AC-3
Формат/Информация : Audio Coding 3
Расширение режима : CM (complete main)
Параметр Endianness формата : Big
Идентификатор кодека : A_AC3
Продолжительность : 1 ч. 37 м.
Вид битрейта : Постоянный
Битрейт : 192 Кбит/сек
Каналы : 2 канала
Расположение каналов : Front: L R
Частота : 48,0 КГц
Частота кадров : 31,250 кадров/сек (1536 spf)
Метод сжатия : С потерями
Размер потока : 133 Мбайт (10%)
Язык : English
Default : Да
Forced : Нет
Statistics Tags Issue : mkvmerge v7.8.0 ('River Man') 32bit built on Mar 27 2015 16:18:02 2019-01-23 01:56:49 / mkvmerge v6.6.0 ('The Edge Of The In Between') built on Dec 1 2013 17:55:00 2019-01-23 07:18:58
FromStats_BitRate : 192000
FromStats_Duration : 01:37:07.008000000
FromStats_FrameCount : 182094
FromStats_StreamSize : 139848192
Текст #1
Идентификатор : 3
Формат : UTF-8
Идентификатор кодека : S_TEXT/UTF8
Идентификатор кодека/Информация : UTF-8 Plain Text
Заголовок : Русский (kosmoaelita,karlivanovich) .srt - перевод на слух с англ.
Язык : Russian
Default : Да
Forced : Нет
Текст #2
Идентификатор : 4
Формат : VobSub
Режим смешивания : zlib
Идентификатор кодека : S_VOBSUB
Идентификатор кодека/Информация : Picture based subtitle format used on DVDs
Заголовок : Русский (kosmoaelita,karlivanovich) .VobSub - перевод на слух с англ.
Язык : Russian
Default : Нет
Forced : Нет
Меню
00:00:00.000 : en:Chapter 01
00:10:00.000 : en:Chapter 02
00:20:02.000 : en:Chapter 03
00:30:00.000 : en:Chapter 04
00:39:58.500 : en:Chapter 05
00:50:00.000 : en:Chapter 06
01:00:00.000 : en:Chapter 07
01:10:00.500 : en:Chapter 08
01:20:00.000 : en:Chapter 09
01:30:00.000 : en:Chapter 10

Пример субтитров

2
00:00:31,136 --> 00:00:34,238
У меня есть дополнительная
информация о медальоне.
3
00:00:34,441 --> 00:00:36,441
Вот.
4
00:00:36,556 --> 00:00:40,812
Я получил это от нашего
источника в Дамаске.
5
00:00:40,870 --> 00:00:43,203
Рисунок медальона полностью?
6
00:00:43,370 --> 00:00:45,852
Всех девяти частей.
7
00:00:45,937 --> 00:00:48,716
Прежде чем он был разбит на куски.
-----------------
719
01:35:28,901 --> 01:35:31,667
Он держал медальон в своих руках.
720
01:35:31,795 --> 01:35:34,125
И часами вот так сидел.
721
01:35:34,150 --> 01:35:36,559
Уставившись на небо, словно...
722
01:35:36,584 --> 01:35:41,394
Словно ждал чего-то.
Ожидал чего-то.
723
01:36:12,584 --> 01:36:16,394
Релиз
www.kosmoaelita.com

Скриншоты
































Скринлист

Файл дополнительно залит на ОБЛАКО
[Profile] [PM]
Display posts:    
Reply to topic

Current time is: 14-Oct 08:43

All times are UTC + 3



You cannot post new topics in this forum
You cannot reply to topics in this forum
You cannot edit your posts in this forum
You cannot delete your posts in this forum
You cannot vote in polls in this forum
You cannot attach files in this forum
You cannot download files in this forum