Немезида 5: Новая модель / Немезида 5 / Nemesis 5: The New Model / Nemesis 5 (Дастин Фергюсон / Dustin Ferguson) [2017, США, Фантастика, WEB-DL.1080p] ЛД (Синема УС)

Reply to topic
DL-List and Torrent activity
Size:  3.11 GB   |    Registered:  4 months 17 days   |    Completed:  0 times

Seeder not seen: 4 months 17 days

 
   
 
 
 
Author Message

kosmoaelita2 ®

Gender: Male

Longevity: 6 years 7 months

Posts: 723

Post 09-Jan-2019 03:11

[Quote]

Немезида 5: Новая модель / Немезида 5 / Nemesis 5: The New Model / Nemesis 5
Страна: США, 42ND street films
Жанр: Фантастика
Год выпуска: 2017
Продолжительность: 01:10:42
Перевод: Любительский (двухголосый) Синема УС
Режиссер: Дастин Фергюсон / Dustin Ferguson
В ролях:
Schuylar Craig ... Adult Ari Frost
Joelle Reeb ... Young Ari Frost
Sue Price ... Alex Sinclair
Mel Novak ... Red Army Hammerhead Leader
Crystal Milani ... Eve
Edwin Garcia ... Edwin
Daniel Joseph Stier ... Dan (as Daniel Stier)
Dawna Lee Heising ... Barbarella ('Barbie')
Zach Muhs ... Nebula
Robert Lankford ... Lt. Telecine / Zoo Extra
Jennii Caroline ... Sgt. Telecine
Breana Mitchell ... Cyborg Twin #1
Lia Havlena ... Cyborg Twin #2
Rikki Wallace ... Harley
Clint Beaver ... Carl the Landlord
Описание: В 2077 году террористическая организация, известная как Красная Армия Молотоголовых, доминирует на Земле. Судьба человечества лежит в руках Новой Модели - Ари Фрост. Она должна организовать людей-киборгов, чтобы свергнуть режим и восстановить контроль над планетой.
Качество видео: WEB-DL-1080p
Формат: MKV
Видео: x264, 5729 кбит/с, 1920x1080, 23.976 к/с
Аудио 1: Русский ЛМ (AC3, 2 ch, 224 Кбит/с)
Аудио 2: Английский (AC3, 2 ch, 224 Кбит/с)
Субтитры : Английские
Работа над релизом:
Видеоряд найден на rarbg2018.org
Синхронизация русской дорожки и удаление рекламы кошары - kosmoaelita



Пример русского перевода

Дополнительно

слоган «You can't stop the future!»

Знаете ли вы, что...

Режиссер первых четырех фильмов Альберт Пьюн остался в новой инкарнации в качестве продюсера.

Отзывы

MediaInfo

Общее
Уникальный идентификатор : 187174539874085305715793603861261828390 (0x8CD0814F59B0FC98A0439B8BD8CFC126)
Полное имя : N:\BD-DISC\Nemesis.5.2017.1080p.AMZN.WEBRip.DDP2.0.x264-CM\Nemesis 5 2017.x264.WEB-DL.1080p.Rus.kosmoaelita.mkv
Формат : Matroska
Версия формата : Version 4 / Version 2
Размер файла : 3,11 Гбайт
Продолжительность : 1 ч. 10 м.
Общий поток : 6302 Кбит/сек
Название фильма : Nemesis 5: The New Model / 2017 / kosmoaelita
Дата кодирования : UTC 2019-01-08 23:38:12
Программа кодирования : mkvmerge v6.6.0 ('The Edge Of The In Between') built on Dec 1 2013 17:55:00
Библиотека кодирования : libebml v1.3.0 + libmatroska v1.4.1
Attachments : POSTER.jpg
Видео
Идентификатор : 1
Формат : AVC
Формат/Информация : Advanced Video Codec
Профиль формата : High@L4
Параметр CABAC формата : Да
Параметр ReFrames формата : 4 кадра
Идентификатор кодека : V_MPEG4/ISO/AVC
Продолжительность : 1 ч. 10 м.
Битрейт : 5729 Кбит/сек
Ширина : 1920 пикселей
Высота : 1080 пикселей
Соотношение сторон : 16:9
Режим частоты кадров : Постоянный
Частота кадров : 23,976 (24000/1001) кадра/сек
Цветовое пространство : YUV
Субдискретизация насыщенности : 4:2:0
Битовая глубина : 8 бит
Тип развёртки : Прогрессивная
Бит/(Пиксели*Кадры) : 0.115
Размер потока : 2,83 Гбайт (91%)
Заголовок : http://kosmoaelita.com/viewtopic.php?t=2650
Default : Да
Forced : Нет
Цветовой диапазон : Limited
Основные цвета : BT.709
Характеристики трансфера : BT.709
Коэффициенты матрицы : BT.709
Statistics Tags Issue : mkvmerge v11.0.0 ('Alive') 64bit 2018-11-29 06:11:48 / mkvmerge v6.6.0 ('The Edge Of The In Between') built on Dec 1 2013 17:55:00 2019-01-08 23:38:12
FromStats_BitRate : 5851647
FromStats_Duration : 01:10:42.238000000
FromStats_FrameCount : 101712
FromStats_StreamSize : 3103010115
Аудио #1
Идентификатор : 2
Формат : AC-3
Формат/Информация : Audio Coding 3
Расширение режима : CM (complete main)
Параметр Endianness формата : Big
Идентификатор кодека : A_AC3
Продолжительность : 1 ч. 10 м.
Вид битрейта : Постоянный
Битрейт : 224 Кбит/сек
Каналы : 2 канала
Расположение каналов : Front: L R
Частота : 48,0 КГц
Частота кадров : 31,250 кадров/сек (1536 spf)
Метод сжатия : С потерями
Размер потока : 113 Мбайт (4%)
Заголовок : Русский ЛМ (Синема УС) - без рекламы
Язык : Russian
Default : Да
Forced : Нет
Аудио #2
Идентификатор : 3
Формат : E-AC-3
Формат/Информация : Audio Coding 3
Параметр Endianness формата : Big
Идентификатор кодека : A_EAC3
Продолжительность : 1 ч. 10 м.
Вид битрейта : Постоянный
Битрейт : 224 Кбит/сек
Каналы : 2 канала
Расположение каналов : Front: L R
Частота : 48,0 КГц
Частота кадров : 187,500 кадров/сек (256 spf)
Метод сжатия : С потерями
Размер потока : 113 Мбайт (4%)
Заголовок : English
Язык : English
Default : Нет
Forced : Нет
Statistics Tags Issue : mkvmerge v11.0.0 ('Alive') 64bit 2018-11-29 06:11:48 / mkvmerge v6.6.0 ('The Edge Of The In Between') built on Dec 1 2013 17:55:00 2019-01-08 23:38:12
FromStats_BitRate : 224000
FromStats_Duration : 01:10:42.272000000
FromStats_FrameCount : 132571
FromStats_StreamSize : 118783616
Текст #1
Идентификатор : 4
Формат : UTF-8
Идентификатор кодека : S_TEXT/UTF8
Идентификатор кодека/Информация : UTF-8 Plain Text
Заголовок : Форс.
Default : Да
Forced : Нет
Текст #2
Идентификатор : 5
Формат : UTF-8
Идентификатор кодека : S_TEXT/UTF8
Идентификатор кодека/Информация : UTF-8 Plain Text
Заголовок : English [SDH]
Язык : English
Default : Нет
Forced : Нет
Statistics Tags Issue : mkvmerge v11.0.0 ('Alive') 64bit 2018-11-29 06:11:48 / mkvmerge v6.6.0 ('The Edge Of The In Between') built on Dec 1 2013 17:55:00 2019-01-08 23:38:12
FromStats_BitRate : 49
FromStats_Duration : 01:10:24.220000000
FromStats_FrameCount : 933
FromStats_StreamSize : 26346

Скриншоты













Скринлист

Файл дополнительно залит на ОБЛАКО
Nemesis 5 2017.x264.WEB-DL.1080p.Rus.kosmoaelita.mkv.torrent
Torrent: Registered [ 2019-01-09 03:11 ]

Download .torrent

Download

8 KB

Status: checked
Completed: 0 times
Size: 3.11 GB
 


Last edited by kosmoaelita2 on 2019-01-09 03:21; edited 1 time in total
[Profile] [PM]

kosmoaelita2 ®

Gender: Male

Longevity: 6 years 7 months

Posts: 723

Post 09-Jan-2019 03:12 (after 1 minute)

[Quote]

Без рекламы.
Очень дешевая любительская поделка, не имеющая ничего общего с первыми фильмами.
[Profile] [PM]

Guest

Gender: Unknown

Post 12-Jan-2019 18:48 (after 3 days)

[Quote]

да
 
Quick Reply

Name:

            
Heads necessary to send messages to enable JavaScript
Display posts:    
Reply to topic

Current time is: 26-May 22:41

All times are UTC + 3



You cannot post new topics in this forum
You can reply to topics in this forum
You cannot edit your posts in this forum
You cannot delete your posts in this forum
You cannot vote in polls in this forum
You cannot attach files in this forum
You can download files in this forum