Знак Дьявола / Корабль Призрак 2 знак дьявола / Кольцо призрака / Нефтяная вышка / The Devils Tattoo / Ghost Rig / Ghost Rig 2: The Legend of the Sea Ghost (Джулиан Кин / Julian Kean) [2003, Великобритания, фантастиа, ужасы, WEBRip] АО (А.Дольский)

Reply to topic
 
Author Message

Guest

Gender: Unknown

Longevity: 50 years

Post 24-Dec-2018 09:01

[Quote]

Знак Дьявола / Корабль Призрак 2 знак дьявола / Кольцо призрака / Нефтяная вышка / The Devils Tattoo / Ghost Rig / Ghost Rig 2: The Legend of the Sea Ghost
Страна: Великобритания, KCD Films, Scottish Screen
Жанр: фантастиа, ужасы
Год выпуска: 2003
Продолжительность: 01:27:52
Перевод: Авторский (одноголосый) А.Дольский
Режиссер: Джулиан Кин / Julian Kean
В ролях: Jason Simmons ... Vincent (as Jaason Simmons)
Bryan Carney ... Will
Juliet Diamond ... Sophie
Kerry Norton ... Annie
Noel Fitzpatrick ... Crawford
Richard Norton ... Kay
David Rae ... Mole
Rory McCann ... Eric
Heather Peace ... Iona
Jamie Bamber ... Tom
Описание: Группа экологов-активистов высадились на нефтяную буровую вышку, чтоб устроить там акцию протеста. Но, как оказалось, буровая была пуста, в помещениях ни одной живой души. Запись скрытой видеокамеры показала, что все работники буровой установки были…
Качество видео: WEBRip
Формат: MKV
Видео: x264, 909 кбит/с, 604x336, 23.976 к/с
Аудио 1: Русский АО (AC3, 2 ch, 192 Кбит/с)
Аудио 2: Английский (AC3, 2 ch, 192 Кбит/с)
Работа над релизом:
Видеоряд найден на синемагеддоне.
Синхронизация русской дорожки - kosmoaelita



Пример русского перевода

Дополнительно

слоган «Evil has found a new home»
Also Known As (AKA)
(original title) The Devil's Tattoo
Greece (DVD title) To simadi tou kakou
Greece Το Σημάδι του Κακού
Italy (TV title) The Devil's Tattoo
Italy Devil's Tattoo - Nel segno del diavolo
Portugal Plataforma Fantasma
UK (video title) (working title) Ghost Rig
USA (DVD title) Ghost Rig

Знаете ли вы, что...

Отзывы

MediaInfo

Общее
Уникальный идентификатор : 221208479603670579498815648168992592527 (0xA66B341767482895A31F0B51E8E8528F)
Полное имя : N:\BD-DISC\The Thing Below 2004\The Devils Tattoo aka Ghost Rig 2003.x264.WEBRip.Rus.kosmoaelita.mkv
Формат : Matroska
Версия формата : Version 4 / Version 2
Размер файла : 831 Мбайт
Продолжительность : 1 ч. 27 м.
Общий поток : 1323 Кбит/сек
Название фильма : The Devils Tattoo / Ghost Rig / Ghost Rig 2: The Legend of the Sea Ghost / 2003 / kosmoaelita
Дата кодирования : UTC 2018-12-24 06:01:40
Программа кодирования : mkvmerge v6.6.0 ('The Edge Of The In Between') built on Dec 1 2013 17:55:00
Библиотека кодирования : libebml v1.3.0 + libmatroska v1.4.1
Attachments : poster.jpg
Видео
Идентификатор : 1
Формат : AVC
Формат/Информация : Advanced Video Codec
Профиль формата : High@L4
Параметр CABAC формата : Да
Параметр ReFrames формата : 3 кадра
Идентификатор кодека : V_MPEG4/ISO/AVC
Продолжительность : 1 ч. 27 м.
Битрейт : 909 Кбит/сек
Ширина : 604 пикселя
Высота : 336 пикселей
Соотношение сторон : 16:9
Соотношение сторон в оригинале : 16:9
Режим частоты кадров : Постоянный
Частота кадров : 25,000 кадров/сек
Цветовое пространство : YUV
Субдискретизация насыщенности : 4:2:0
Битовая глубина : 8 бит
Тип развёртки : Прогрессивная
Бит/(Пиксели*Кадры) : 0.179
Размер потока : 574 Мбайт (69%)
Заголовок : http://kosmoaelita.com/viewtopic.php?t=2637
Библиотека кодирования : x264 core 66 r1092 60f4cd8
Настройки программы : cabac=1 / ref=3 / deblock=1:-1:-1 / analyse=0x3:0x113 / me=umh / subme=9 / psy_rd=1.1:0.0 / mixed_ref=0 / me_range=16 / chroma_me=0 / trellis=0 / 8x8dct=1 / cqm=0 / deadzone=21,11 / chroma_qp_offset=-2 / threads=6 / nr=0 / decimate=1 / mbaff=0 / bframes=3 / b_pyramid=0 / b_adapt=2 / b_bias=0 / direct=3 / wpredb=1 / keyint=250 / keyint_min=25 / scenecut=40(pre) / rc=2pass / bitrate=909 / ratetol=1.0 / qcomp=0.60 / qpmin=10 / qpmax=51 / qpstep=4 / cplxblur=20.0 / qblur=0.5 / vbv_maxrate=25000 / vbv_bufsize=14000 / ip_ratio=1.40 / pb_ratio=1.30 / aq=1:1.00
Default : Да
Forced : Нет
Аудио #1
Идентификатор : 2
Формат : AC-3
Формат/Информация : Audio Coding 3
Расширение режима : CM (complete main)
Параметр Endianness формата : Big
Идентификатор кодека : A_AC3
Продолжительность : 1 ч. 27 м.
Вид битрейта : Постоянный
Битрейт : 192 Кбит/сек
Каналы : 2 канала
Расположение каналов : Front: L R
Частота : 48,0 КГц
Частота кадров : 31,250 кадров/сек (1536 spf)
Метод сжатия : С потерями
Размер потока : 121 Мбайт (15%)
Заголовок : Русский АО (А.Дольский) - с VHS
Язык : Russian
Default : Да
Forced : Нет
Аудио #2
Идентификатор : 3
Формат : AC-3
Формат/Информация : Audio Coding 3
Расширение режима : CM (complete main)
Параметр Endianness формата : Big
Идентификатор кодека : A_AC3
Продолжительность : 1 ч. 27 м.
Вид битрейта : Постоянный
Битрейт : 192 Кбит/сек
Каналы : 2 канала
Расположение каналов : Front: L R
Частота : 48,0 КГц
Частота кадров : 31,250 кадров/сек (1536 spf)
Метод сжатия : С потерями
Размер потока : 121 Мбайт (15%)
Язык : English
Default : Нет
Forced : Нет

Скриншоты

Скринлист

Файл дополнительно залит на ОБЛАКО


Last edited by on 2018-12-24 10:30; edited 5 times in total
[Profile] [PM]

Guest

Gender: Unknown

Longevity: 50 years

Post 24-Dec-2018 09:08 (after 6 minutes)

[Quote]

VHSRip vs. WEBRip

[Profile] [PM]
Display posts:    
Reply to topic

Current time is: 01-Oct 16:37

All times are UTC + 3



You cannot post new topics in this forum
You cannot reply to topics in this forum
You cannot edit your posts in this forum
You cannot delete your posts in this forum
You cannot vote in polls in this forum
You cannot attach files in this forum
You cannot download files in this forum