Подземный стрелок / Airtight (Ian Barry / Иэн Бэрри) [1999, США, Фантастика, боевик, VHSRip] (ПМ)

Reply to topic
 
Author Message

Guest ®

Gender: Unknown

Post 21-Dec-2018 12:39

[Quote]

Подземный стрелок / Airtight
Страна: Австралия
Жанр: Фантастика, боевик
Год выпуска: 1999
Продолжительность: 01:29:14
Перевод: Профессиональный (многоголосый)
Cубтитры: нет
Режиссер: Ian Barry / Иэн Бэрри
В ролях: Грэйсон МакКоч, Джон Ноубл, Эндрю МакФерлэйн, Тэзма Уолтон, Маршалл Напье
Описание: 1. В начале третьего тысячелетия гонка вооружений привела к ядерным испытаниям, а те — к отравлению атмосферы. Воздух забирали на большой высоте и накачивали в герметические города и здания, находящиеся под защитой подземных стрелков, которые исполняли функции спасателей и полиции. Негодяи в черных масках украли профессора Эшера, сумевшего найти способ производить чистый воздух. Отец Рэта, погибает в шахте, но перед смертью успевает сказать сыну, который работает вместе с ним, что все дело в Эшере. Рэт должен во всем разобраться и отомстить убийцам, которые хотят взять на себя контроль над воздуховодами.
2. Случилось самое страшное... Случилось то, что житель Земли не мог представить себе даже в самом жутком сне. Истерзанная, доведённая "до ручки" природа, больше не могла быть другом и союзником человека. Бесконечные ядерные испытания отравили атмосферу, и проживание на поверхности планеты стало невозможным. Человечество переселилось в подземные города. Теперь солнце и свежий воздух стали дороже золота. Миллионы людей грезят о них ночами. Но, к сожалению, даже в подземном царстве дурная человеческая сущность не позволила существовать людям в мире и согласии. Здесь, в лабиринтах мрачных тоннелей, закон насаждается элитными отрядами "подземных стрелков". Именно на их плечах лежит ответственность за правопорядок…

Доп. информация: Собственная оцифровка.
Качество видео: VHSRip
Формат видео: MKV
Видео: x264, 2000 кбит/с, 720x520, 25.00 к/с
Аудио 1: Русский MVО (AC3, 2 ch, 192 Кбит/с)
Аудио 2: Английский (AC3, 2 ch, 192 Кбит/с)
Работа над релизом:




Пример русского перевода

Дополнительно

Also Known As (AKA)
(original title) Airtight
Brazil No Limite da Resistência
France Pollution mortelle
Germany Airtight - Mörderisches Labyrinth
Hungary Légszomj

Знаете ли вы, что...

Отзывы

Рецензия

MediaInfo

Общее
Уникальный идентификатор : 222686301882839160865043474612886737331 (0xA787D25AF017564EAB3D765D0DC091B3)
Полное имя : F:\Airtight 1999.x264.VHSRip.Rus.kosmoaelita.mkv
Формат : Matroska
Версия формата : Version 4 / Version 2
Размер файла : 1,49 Гбайт
Продолжительность : 1 ч. 29 м.
Общий поток : 2389 Кбит/сек
Название фильма : Airtight (1999)
Дата кодирования : UTC 2018-12-21 23:12:18
Программа кодирования : mkvmerge v6.6.0 ('The Edge Of The In Between') built on Dec 1 2013 17:55:00
Библиотека кодирования : libebml v1.3.0 + libmatroska v1.4.1
Обложка : Yes
Attachments : Cover.png
Видео
Идентификатор : 1
Формат : AVC
Формат/Информация : Advanced Video Codec
Профиль формата : High@L4.1
Параметр CABAC формата : Да
Параметр ReFrames формата : 8 кадров
Идентификатор кодека : V_MPEG4/ISO/AVC
Продолжительность : 1 ч. 29 м.
Битрейт : 2000 Кбит/сек
Ширина : 720 пикселей
Высота : 520 пикселей
Соотношение сторон : 1,385
Режим частоты кадров : Постоянный
Частота кадров : 25,000 кадров/сек
Цветовое пространство : YUV
Субдискретизация насыщенности : 4:2:0
Битовая глубина : 8 бит
Тип развёртки : Прогрессивная
Бит/(Пиксели*Кадры) : 0.214
Размер потока : 1,22 Гбайт (82%)
Заголовок : http://kosmoaelita.com/viewtopic.php?t=2633
Библиотека кодирования : x264 core 130 r2273 b3065e6
Настройки программы : cabac=1 / ref=8 / deblock=1:-3:-3 / analyse=0x3:0x133 / me=umh / subme=10 / psy=1 / psy_rd=0.99:0.14 / mixed_ref=1 / me_range=24 / chroma_me=1 / trellis=2 / 8x8dct=1 / cqm=0 / deadzone=21,11 / fast_pskip=1 / chroma_qp_offset=-3 / threads=6 / lookahead_threads=1 / sliced_threads=0 / nr=0 / decimate=1 / interlaced=0 / bluray_compat=0 / constrained_intra=0 / bframes=8 / b_pyramid=2 / b_adapt=2 / b_bias=0 / direct=3 / weightb=1 / open_gop=0 / weightp=2 / keyint=210 / keyint_min=21 / scenecut=40 / intra_refresh=0 / rc_lookahead=80 / rc=2pass / mbtree=1 / bitrate=2000 / ratetol=1.0 / qcomp=0.65 / qpmin=0 / qpmax=69 / qpstep=4 / cplxblur=20.0 / qblur=0.5 / ip_ratio=1.25 / aq=1:0.90
Default : Да
Forced : Нет
Statistics Tags Issue : mkvmerge v7.8.0 ('River Man') 32bit built on Mar 27 2015 16:18:02 2018-12-21 20:31:11 / mkvmerge v6.6.0 ('The Edge Of The In Between') built on Dec 1 2013 17:55:00 2018-12-21 23:12:18
FromStats_BitRate : 2000148
FromStats_Duration : 01:29:14.760000000
FromStats_FrameCount : 133869
FromStats_StreamSize : 1338789518
Аудио #1
Идентификатор : 2
Формат : AC-3
Формат/Информация : Audio Coding 3
Расширение режима : CM (complete main)
Параметр Endianness формата : Big
Идентификатор кодека : A_AC3
Продолжительность : 1 ч. 29 м.
Вид битрейта : Постоянный
Битрейт : 192 Кбит/сек
Каналы : 2 канала
Расположение каналов : Front: L R
Частота : 48,0 КГц
Частота кадров : 31,250 кадров/сек (1536 spf)
Метод сжатия : С потерями
Размер потока : 123 Мбайт (8%)
Заголовок : Русский ПМ ()
Язык : Russian
Default : Да
Forced : Нет
Аудио #2
Идентификатор : 3
Формат : AC-3
Формат/Информация : Audio Coding 3
Расширение режима : CM (complete main)
Параметр Endianness формата : Big
Идентификатор кодека : A_AC3
Продолжительность : 1 ч. 29 м.
Вид битрейта : Постоянный
Битрейт : 192 Кбит/сек
Каналы : 2 канала
Расположение каналов : Front: L R
Частота : 48,0 КГц
Частота кадров : 31,250 кадров/сек (1536 spf)
Метод сжатия : С потерями
Размер потока : 123 Мбайт (8%)
Язык : English
Default : Нет
Forced : Нет
Меню
00:07:19.010 : :Глава 01
00:14:38.180 : :Глава 02
00:23:35.090 : :Глава 03
00:32:31.010 : :Глава 04
00:41:31.010 : :Глава 05
00:49:31.010 : :Глава 06
00:57:51.170 : :Глава 07
01:05:29.150 : :Глава 08
01:13:59.210 : :Глава 09
01:21:52.160 : :Глава 10
01:27:43.010 : :Глава 11

Скриншоты
















Скринлист

Файл дополнительно залит на ОБЛАКО
 

pompilius

Gender: Male

Longevity: 3 years 10 months

Posts: 466

Post 04-May-2019 01:28 (after 4 months 13 days)

[Quote]

Интересно, размер файла с торрента 2,11 GB, а на облаке лежит 1,49GB.
[Profile] [PM]

Guest

Gender: Unknown

Longevity: 51 year

Post 04-May-2019 02:14 (after 45 minutes)

[Quote]

Честно говоря. я уже совершенно не помню. Может где-то рип нашел качеством получше и залил его на облако...
[Profile] [PM]
Display posts:    
Reply to topic

Current time is: 23-Sep 14:18

All times are UTC + 3



You cannot post new topics in this forum
You cannot reply to topics in this forum
You cannot edit your posts in this forum
You cannot delete your posts in this forum
You cannot vote in polls in this forum
You cannot attach files in this forum
You cannot download files in this forum