Бег во времени / Замечательная поездка / Grand Tour / Grand Tour: Disaster In Time / Timescape (Дэвид Туи / David Twohy) [1992 г., Фантастика, триллер, драма, DVDRip] ПМ (НТВ+), АО (А. Гаврилов)

Reply to topic
 
Author Message

admin ®

Gender: Male

Longevity: 7 years

Posts: 4725

Location: Україна

Post 14-Oct-2012 17:41

[Quote]

Бег во времени / Замечательная поездка / Grand Tour / Grand Tour: Disaster In Time / Timescape
Год выпуска: 1992
Страна: США, Channel Communications, Drury Lane Holdings, Wild Street Pictures
Жанр: Фантастика, триллер, драма
Продолжительность: 01:38:00
Перевод: ПМ (НТВ+), АО (А.Гаврилов)
Режиссер: Дэвид Туи / David Twohy
В ролях: Джефф Дэниелс, Ариана Ричардс, Эмилия Кроу, Джим Хейни, Мэрлин Лайтстоун, Джордж Мёрдок, Дэвид Уэллс, Николас Гест, Роберт Колбер, Тайм Уинтерс
Описание: Рассказ по которому снят фильм, называется "Лучшее время года", за авторством Генри Каттнера и его жены Кэтрин Мур. Лоренс О.Доннел - псевдоним Каттнера, когда они с супругой писали в соавторстве. И заканчивается он вовсе не так счастливо, напротив, считаю его одним из самых страшных рассказов в фантастике. Читать обязательно http://lib.rus.ec/b/26074/read
В небольшом городе Greenglen есть небольшой семейный отель. Его владелец Бен Уилсон недавно потерял жену и остался один с дочерью-подростком Хилари. Чтобы немного развеяться после смерти супруги, отец и дочь на некоторое время покидают город. После возвращения они приводят отель в порядок и начинают принимать постояльцев. Но постояльцы оказываются какими-то странными ребятами. Они ведут себя так, как будто приехали в настоящий центр развлечений, где должно совершиться что-то грандиозное, а не в маленький, лишенный особых достопримечательностей городок. Истина выясняется довольно скоро. Странные туристы оказываются путешественниками во времени и прибыли они сюда отнюдь не случайно

Качество: DVDRip
Формат: AVI
Видео: xvid, 1850 кбит/с, 720x400, 23.976 к/с
Аудио 1: Русский НТВ+ (AC3, 2 ch, 192 Кбит/с)
Аудио 2: Русский Гаврилов (МР3, 2 ch, 192 Кбит/с)
Аудио 3: Английский (МР3, 2 ch, 192 Кбит/с)


Трейлер

Релиз

Для Украины: рип и оригинальный ДВД дополнительно залиты в файлохранилище
Для удаления и добавления дорожек в mkv используйте бесплатную mkvmerge GUI 5.80

Дополнительно

слоган «They came to watch his world be destroyed. He fought to stop them.»
Also Known As (AKA)
Apodrasi sto hrono Greece (video title)
Fugindo do Futuro Brazil (imdb display title)
Grand Tour: Disaster in Time USA (video title)
Huida a través del tiempo Spain
Időrés Hungary
La course contre le temps Canada (French title)
The Grand Tour USA (closing credits title)
Timescape - Im Wettlauf gegen die Zeit Germany (DVD title)
Timescape - Le passager du futur France
Timescape - pako eiliseen Finland

Рецензия

Побег из времени
Бен Уилсон (Джефф Дэниелс) владелец небольшой гостиницы в городке Гринглен. После трагической гибели жены, единственным важным человеком в его жизни остаётся дочь Хилари (Ариана Ричардс). Вместе они живут тихой, размеренной жизнью, пока к ним в гостиницу не заезжают очень странные постояльцы…
Режиссёрский дебют Дэвида Туи не блещет визуальными эффектами, но навсегда остаётся в памяти. Ведь, вероятно, у каждого из нас хотя бы раз в жизни был день, который хотелось поменять и сделать всё по другому. Но решились бы вы на это, зная, что меняя всё — рискуете своей жизнью?
Джефф Дэниелс шикарный актёр, органично смотрящийся и в комедиях, и в боевиках, и драмах. В Timescape он великолепен в образе отца, готового на всё ради своей семьи, готового для неё убежать из времени.
Фанатам «бум-бах-бздыщ» картин конечно тут делать нечего, а вот любящим фантастические драмы данный фильм однозначно рекомендую.
10 из 10

MediaInfo

Общее
Полное имя : F:\Beg.vo.vremeni.1992.XviD.DVDRip.PM.Gavrilov.avi
Формат : AVI
Формат/Информация : Audio Video Interleave
Размер файла : 1,68 Гбайт
Продолжительность : 1 ч. 38 м.
Общий поток : 2440 Кбит/сек
Программа кодирования : VirtualDubMod 1.5.10.3 (build 2550/release)
Библиотека кодирования : VirtualDubMod build 2550/release
Видео
Идентификатор : 0
Формат : MPEG-4 Visual
Профиль формата : Advanced Simple@L5
Параметр BVOP формата : Нет
Параметр QPel формата : Нет
Параметр GMC формата : Без точки перехода
Параметр матрицы формата : Выборочная
Идентификатор кодека : XVID
Идентификатор кодека/Подсказка : XviD
Продолжительность : 1 ч. 38 м.
Битрейт : 1850 Кбит/сек
Ширина : 720 пикселей
Высота : 400 пикселей
Соотношение сторон : 16:9
Частота кадров : 23,976 кадра/сек
Цветовое пространство : YUV
Субдискретизация насыщенности : 4:2:0
Битовая глубина : 8 бит
Тип развёртки : Прогрессивная
Метод сжатия : С потерями
Бит/(Пиксели*Кадры) : 0.268
Размер потока : 1,28 Гбайт (76%)
Библиотека кодирования : XviD 1.2.0.dev47 (UTC 2006-11-01)
Аудио #1
Идентификатор : 1
Формат : AC-3
Формат/Информация : Audio Coding 3
Расширение режима : CM (complete main)
Параметр Endianness формата : Big
Идентификатор кодека : 2000
Продолжительность : 1 ч. 36 м.
Вид битрейта : Постоянный
Битрейт : 192 Кбит/сек
Каналы : 2 канала
Расположение каналов : Front: L R
Частота : 48,0 КГц
Битовая глубина : 16 бит
Метод сжатия : С потерями
Размер потока : 133 Мбайт (8%)
Выравнивание : Соединение по промежуткам
Продолжительность промежутка : 43 мс. (1,02 видеокадр)
Время предзагрузки промежутка : 512 мс.
Заголовок : Русский ПМ
Аудио #2
Идентификатор : 2
Формат : MPEG Audio
Версия формата : Version 1
Профиль формата : Layer 3
Идентификатор кодека : 55
Идентификатор кодека/Подсказка : MP3
Продолжительность : 1 ч. 38 м.
Вид битрейта : Постоянный
Битрейт : 192 Кбит/сек
Каналы : 2 канала
Частота : 44,1 КГц
Метод сжатия : С потерями
Размер потока : 136 Мбайт (8%)
Выравнивание : Разделение по промежуткам
Продолжительность промежутка : 42 мс. (1,00 видеокадр)
Время предзагрузки промежутка : 500 мс.
Заголовок : Русский Гаврилов
Аудио #3
Идентификатор : 3
Формат : MPEG Audio
Версия формата : Version 1
Профиль формата : Layer 3
Идентификатор кодека : 55
Идентификатор кодека/Подсказка : MP3
Продолжительность : 1 ч. 38 м.
Вид битрейта : Постоянный
Битрейт : 192 Кбит/сек
Каналы : 2 канала
Частота : 44,1 КГц
Метод сжатия : С потерями
Размер потока : 136 Мбайт (8%)
Выравнивание : Разделение по промежуткам
Продолжительность промежутка : 42 мс. (1,00 видеокадр)
Время предзагрузки промежутка : 500 мс.
Заголовок : Английский

Скриншоты


cd Рип дополнительно залит на ОБЛАКО cd2
[Profile] [PM]

Guest

Gender: Unknown

Post 02-Jan-2017 20:45 (after 4 years 2 months)

[Quote]

Почему-то звук НТВ+ не воспроизводится. Другая русская дорожка Гаврилова звучит нормально.
 

kosmoaelita

Gender: Male

Longevity: 49 years

Posts: 965

Post 02-Jan-2017 22:30 (after 1 hour 45 minutes)

[Quote]

На облаке НТВ воспроизводится - значит проблема только у вас
[Profile] [PM]
Display posts:    
Reply to topic

Current time is: 18-Sep 08:36

All times are UTC + 3



You cannot post new topics in this forum
You cannot reply to topics in this forum
You cannot edit your posts in this forum
You cannot delete your posts in this forum
You cannot vote in polls in this forum
You cannot attach files in this forum
You cannot download files in this forum