Чужие против девочек из колледжа / Чужие против Титаника / Мир Хищников / Predator World / Aliens vs. College Girls / Aliens vs. Titanic (Джефф Лерой / Jeff Leroy) [2017, США, фантастика, трэш, WEBDL-1080p] ПМ (Синема УС)

Reply to topic
DL-List and Torrent activity
Size:  6.31 GB   |    Registered:  9 months 2 days   |    Completed:  0 times

Seeder not seen: 9 months 2 days

 
   
 
 
 
Author Message

kosmoaelita2 ®

Gender: Male

Longevity: 6 years 11 months

Posts: 743

Post 16-Dec-2018 12:12

[Quote]

Чужие против девочек из колледжа / Чужие против Титаника / Мир Хищников / Predator World / Aliens vs. College Girls / Aliens vs. Titanic
Страна: США, Girls and Corpses, Sterling Entertainment
Жанр: фантастика, трэш
Год выпуска: 2017
Продолжительность: 01:25:06
Перевод: Профессиональный (многоголосый) Синема УС
Режиссер: Джефф Лерой / Jeff Leroy
В ролях:
Tasha Tacosa ... Lana Vickers
Robert Rhine ... Captain McBride
Brenton Jones ... Dirk
Kelly Erin Decker ... Terri
William Gabriel Grier ... Kenny
Jin N. Tonic ... Diamond
Layla Price ... Jackie (as Laela Pryce)
Shawn C. Phillips ... Cruise Director
Michael Goulis ... Captain Cameron
Tracy Carr ... Major Scott
Victoria De Mare ... Avril
Jay Woelfel ... Fishy
Rolfe Kanefsky ... Abbott
Rest of cast listed alphabetically:
Rocky Flor ... Cook
Bree Olson ... Jackie
Описание: Экипаж круизного космического корабля «Титаник» столкнулся с астероидом и потерпел крушение во время своего первого полёта. Большинству пассажиров посчастливилось умереть, но пять человек выжили и приземлились на чужой планете. И очень скоро пожалели об этом...
Качество видео: WEBDL-1080p
Формат: MKV
Видео: x264, 9986 кбит/с, 1920x1080, 23.976 к/с
Аудио 1: Русский ПМ (Синема УС) (AC3, 2 ch, 192 Кбит/с)
Аудио 2: Английский (AC3, 2 ch, 224 Кбит/с)
Субтитры : Английские
Работа над релизом:
Видеоряд найден на rarbg2018.org
Синхронизация русской дорожки и удаление рекламы от кошары - kosmoaelita



Пример русского перевода

Дополнительно

слоган «The Hunt Begins»
Also Known As (AKA)
(original title) Aliens vs. Titanic
Japan (literal English title) Predator Planet
Japan Puredetâ puranetto
UK (DVD title) Aliens Vs. College Girls
USA (new title) Aliens vs. College Girls
USA (new title) Predator World

Знаете ли вы, что...

Отзывы

Полная чушь в абсолюте. Разврат и наркота - вот две вещи на которых держится весь фильм, смотреть совершенно не интересно. Вторая часть была еще ничего, но эта просто какой-то дурдом.
-----------------------------------
Выпущено: США, Girls and Corpses
Классная компания: Девочки и трупы! )
Что за бред? Уже само название - с Чужими сам Титаник дерется?
------------------------------------
Большинству посмотревших пришлось покончить с собой ) Фильмец для коллективного просмотра )Желательно в пьяном угаре )
-----------------------------
Экипаж круизного космического корабля Титаник столкнулся с астероидом и потрепал всех чужих. Большинству чужих удалось выжить. - Но и пять человек тоже выжили. И очень скоро чужие пожалели об этом!
--------------------
Это просто фильм-бомба, взрывает психику, особенно под конец фильма... Жалко что на сайте кинопоиска удалили постер и комментарии, по этому чудесному фильму.
------------------------
girls and corpses - это помнится журнал такой был. там публиковали фото полуголых девок с трупами. видать, в кинобизнес ребята ударились
----------------------------

Рецензия

Соблазнившись восторженными отзывами, решил воочию узреть этот феномен кинематографа с участием оскороносных Таши Такоса и Роберта Райн. На поверку оказалось, что безусловной похвалы данная кинолента заслуживает за сумасшедшие визуальные эффекты, создающие поистине реалистичное ощущение космоса.
Вид космического корабля буквально завораживает, да так, что дух захватывает. Не менее впечатляюще выглядят "чужие". Их мертвые глаза холодно взирают из черноты на людей, дерзнувших вторгнуться в их пространство.
Действия в фильме развиваются также неторопливо при отсутствии какой-либо смысловой нагрузки, кроме борьбы за выживание. Ужас, творящийся на космическом корабле, доводит до безумия своим накалом.
Между тем, не смотря на это, на протяжении всего просмотра невозможно «отлипнуть» от экрана, словно завороженному, и лишь осознание иррациональности всего происходящего не позволяет упасть в обморок от творящегося перед тобой кошмара в замкнутом, тесном пространстве. И какая развязка всей этой фантастической истории! – весьма неожиданна, что также приятно.
Одним словом, снято все жестко и эстетично. Старт взят с первых минут до финишного свистка. Здесь вам и бешеный ритм, и посылки к размышлению о будущем и нормах морали и нравственности, комизм различных ситуаций и скорбь по утраченному. И над всем этим довлеет СТРАХ!
Безусловно, сие произведение Джеффа Лерой шедевр. Это самостоятельная и качественная работа. Игра актеров убедительна и завораживает, словно удав гипнотизирует кролика, перед тем как его слопать. Все подано под удивительно вписывающийся в сценарий саунд с подачи великолепной операторской работы. Одним словом, все участвовавшие в создание этой киноленты молодцы.

MediaInfo

Общее
Уникальный идентификатор : 177703885312797439120685998497855166402 (0x85B085FD442CC37D852089E5455BD7C2)
Полное имя : H:\НА ПЕРЕЗАПИСЬ В АРХИВ\Predator.World.2018.1080p.AMZN.WEBRip.DDP2.0.x264-CM\Aliens vs. Titanic aka Predator World 2018.x264.WEB-DL.1080p.Rus.kosmoaelita.mkv
Формат : Matroska
Версия формата : Version 4 / Version 2
Размер файла : 6,31 Гбайт
Продолжительность : 1 ч. 25 м.
Общий поток : 10,6 Мбит/сек
Название фильма : Predator World / Aliens vs. College Girls / Aliens vs. Titanic / 2017 / kosmoaelita
Дата кодирования : UTC 2018-12-16 09:00:24
Программа кодирования : mkvmerge v6.6.0 ('The Edge Of The In Between') built on Dec 1 2013 17:55:00
Библиотека кодирования : libebml v1.3.0 + libmatroska v1.4.1
Attachments : poster_.jpg
Видео
Идентификатор : 1
Формат : AVC
Формат/Информация : Advanced Video Codec
Профиль формата : High@L4
Параметр CABAC формата : Да
Параметр ReFrames формата : 4 кадра
Идентификатор кодека : V_MPEG4/ISO/AVC
Продолжительность : 1 ч. 25 м.
Битрейт : 9986 Кбит/сек
Ширина : 1920 пикселей
Высота : 1080 пикселей
Соотношение сторон : 16:9
Режим частоты кадров : Постоянный
Частота кадров : 23,976 (24000/1001) кадра/сек
Цветовое пространство : YUV
Субдискретизация насыщенности : 4:2:0
Битовая глубина : 8 бит
Тип развёртки : Прогрессивная
Бит/(Пиксели*Кадры) : 0.201
Размер потока : 5,94 Гбайт (94%)
Заголовок : http://kosmoaelita.com/viewtopic.php?t=2627
Default : Да
Forced : Нет
Цветовой диапазон : Limited
Основные цвета : BT.709
Характеристики трансфера : BT.709
Коэффициенты матрицы : BT.709
Аудио #1
Идентификатор : 2
Формат : AC-3
Формат/Информация : Audio Coding 3
Расширение режима : CM (complete main)
Параметр Endianness формата : Big
Идентификатор кодека : A_AC3
Продолжительность : 1 ч. 25 м.
Вид битрейта : Постоянный
Битрейт : 192 Кбит/сек
Каналы : 2 канала
Расположение каналов : Front: L R
Частота : 48,0 КГц
Частота кадров : 31,250 кадров/сек (1536 spf)
Метод сжатия : С потерями
Размер потока : 117 Мбайт (2%)
Заголовок : Русский ЛМ (Синема УС) - без рекламы
Язык : Russian
Default : Да
Forced : Нет
Аудио #2
Идентификатор : 3
Формат : E-AC-3
Формат/Информация : Audio Coding 3
Параметр Endianness формата : Big
Идентификатор кодека : A_EAC3
Продолжительность : 1 ч. 25 м.
Вид битрейта : Постоянный
Битрейт : 224 Кбит/сек
Каналы : 2 канала
Расположение каналов : Front: L R
Частота : 48,0 КГц
Частота кадров : 187,500 кадров/сек (256 spf)
Метод сжатия : С потерями
Размер потока : 136 Мбайт (2%)
Заголовок : English
Язык : English
Default : Нет
Forced : Нет
Текст #1
Идентификатор : 4
Формат : UTF-8
Идентификатор кодека : S_TEXT/UTF8
Идентификатор кодека/Информация : UTF-8 Plain Text
Язык : English
Default : Да
Forced : Нет
Текст #2
Идентификатор : 5
Формат : UTF-8
Идентификатор кодека : S_TEXT/UTF8
Идентификатор кодека/Информация : UTF-8 Plain Text
Заголовок : SDH
Язык : English
Default : Нет
Forced : Нет

Скриншоты





































Скринлист

Файл дополнительно залит на ОБЛАКО
Aliens vs. Titanic aka Predator World 2017.x264.WEB-DL.1080p.Rus.kosmoaelita.mkv.torrent
Torrent: Registered [ 2018-12-16 12:46 ]

Download .torrent

Download

16 KB

Status: checked
Completed: 0 times
Size: 6.31 GB
 


Last edited by kosmoaelita2 on 2018-12-16 12:47; edited 4 times in total
[Profile] [PM]

kosmoaelita2 ®

Gender: Male

Longevity: 6 years 11 months

Posts: 743

Post 16-Dec-2018 12:32 (after 20 minutes)

[Quote]

Без рекламы.
Чудовищный трэш ab
[Profile] [PM]
Quick Reply

Name:

            
Heads necessary to send messages to enable JavaScript
Display posts:    
Reply to topic

Current time is: 19-Sep 01:33

All times are UTC + 3



You cannot post new topics in this forum
You can reply to topics in this forum
You cannot edit your posts in this forum
You cannot delete your posts in this forum
You cannot vote in polls in this forum
You cannot attach files in this forum
You can download files in this forum