Воин-призрак / Ghost Warrior (Кэрролл Ларри Дж. / J. Larry Carroll) [1984, США, фантастика, боевик, BDRip-1080p] ПД (НТВ+), ПМ (ТВ3), АО (П.Карцев)

Reply to topic
DL-List and Torrent activity
Size:  8.63 GB   |    Registered:  1 year 11 months   |    Completed:  0 times

Seeder not seen: 1 year 11 months

 
   
 
 
 
Author Message

Guest

Gender: Unknown

Longevity: 50 years

Post 08-Dec-2018 09:32

[Quote]

Воин-призрак / Ghost Warrior
Страна: США, Albert Band International Productions Inc., Empire Pictures, Harkham Productions
Жанр: фантастика, боевик
Год выпуска: 1984
Продолжительность: 01:20:59
Перевод: Профессиональный (двухголосый) НТВ+
Перевод 2: Профессиональный (многоголосый) ТВ3
Перевод 3: Авторский (одноголосый) П.Карцев
Режиссер: Кэрролл Ларри Дж. / J. Larry Carroll
В ролях: Hiroshi Fujioka ... Yoshimitsu
John Calvin ... Doctor Alan Richards
Janet Julian ... Chris Welles
Charles Lampkin ... Willie Walsh
Frank Schuller ... Detective Berger
Bill Morey ... Doctor Carl Anderson
Andy Wood ... Doctor Pete Denza
Robert Kino ... Professor Takagi
Joan Foley ... Ellie West
Peter Liapis ... Johnny Tooth
Mieko Kobayashi ... Chidori
Toshishiro Obata ... Japanese Officer (as Toshiji Obata)
Rob Narita ... Boy Skier
Lynn Kuratomi ... Girl Skier
Chris Caputo ... Tom Jenks
Описание: 1552 год. На глазах у самурая Йоши убивают любимую, а его самого сбрасывают в ледяное озеро. В наши дни сохранившееся во льду тело Йоши доставляют в США в секретную лабораторию, где древнего воина возвращают к жизни.
Один из сотрудников лаборатории попытался стащить самурайский меч, за что и поплатился жизнью. Встревоженный самурай сбегает из больницы на свободу, где на улицах современного Лос-Анжелеса его окружает совершенно чужой и непонятный мир. Однако, когда он становится свидетелем нападения на беззащитного прохожего, Йоши спасает жертву грабежа.
Предводитель банды выслеживает самурая и приводит с собой подмогу. Йоши и на этот раз расправляется с подонками. Но затем охоту на него начинает и полиция, разыскивающая древнего воина из лаборатории. Через четыре столетия история повторяется — самурай вновь оказывается один против всех.

Качество видео: BDRip-1080p
Формат: MKV
Видео: x264, 13900 кбит/с, 1920x1040, 23.976 к/с
Аудио 1: Русский ПД (AC3, 2 ch, 224 Кбит/с)
Аудио 2: Русский ПМ (AC3, 2 ch, 224 Кбит/с)
Аудио 3: Русский АО (AC3, 2 ch, 224 Кбит/с)
Аудио 4: Английский (AC3, 2 ch, 640 Кбит/с)
Субтитры : Английские
Работа над релизом:
Видеоряд найден на rarbg2018.org
Синхронизацич всех русских дорожек - kosmoaelita



Пример перевода от НТВ+

Дополнительно

слоган «Forgotten by time...Awakened by science...An ancient warrior faces the battle of his life»
Also Known As (AKA)
(original title) Ghost Warrior
Spain El hombre de hielo
Brazil Guerreiro Mortal
Italy Il ritorno del samurai
Belgium (French title) (DVD title) La légende des Samouraïs
France Le guerrier fantôme
Norway Swordkill
West Germany Swordkill
Finland Tappava miekka
Формат изображения: 1.85 : 1
Формат копии: 35 mm
Формат съёмок: 35 mm
Изображение: цветное
Язык: английский

Рецензия

Крионированный самурай: один протв всех
Единственная режиссёрская работа большого знатока космический фантастики ("Звёздный путь», «Космический полицейский участок», «Робинзоны космоса», «Звёздные врата» и др.) Д. Р. Кэрролла. Режиссёр коснулся очень интересной темы криоконсервации, набирающей популярность в США с тех пор, как в 1964 году вышла книга Р. Эттингера «Перспективы бессмертия», а уже в 1973 был крионирован первый человек.
Кэрроллу ничего особенно фантазировать не пришлось, потому что в США на момент съёмок уже давно работали крупнейшие крионические фирмы, имеющие собственные хранилища: Alcor (1972), ТрансТайм (1972) и Институт Крионики (1976). От режиссёра требовалось лишь придумать интересную историю, что он и сделал совместно с Тимом Карненом. История, действительно, получилась по-своему красивая, хотя она едва ли понравится всем зрителям.
Возможно потому, что фильм, в какой-то степени, получился расслабляюще медитативным, чему в немалой степени способствовал облик самурая Ёшимицу, созданный фактурным Хироси Фудзиока. Собственно, на его «молчаливой харизме» и держится весь фильм, словно оправдывая расхожее выражение: «кричащий в гневе смешон, молчащий в гневе страшен». Хотя Ёшимицу не был бы самураем, если бы позволял своему гневу обнажить клинок.
Финал удался в полной мере, логически связав «недавнее» прошлое (1552г.) Ёшимицу с реалиями сегодняшнего дня. Связь получилась символической, намекая на замкнутый жизненный цикл, который при всём многообразии возможных вариантов будущего, останавливается на единственно возможном в данной ситуации:" — Других путей нет… Путь самурая — смерть…»
P.S. Самое удивительное в фильме то, что «в 1991 году в итальянских Альпах два немецких туриста сделали страшную, и в то же время, интересную находку. Они обнаружили очень хорошо сохранившееся тело мужчины… Он стоял как живой, по пояс во льду. Спортсмены сначала подумали, что это кто-то из их коллег, замерзший недавно. Но козья шкура, в которую был одет мужчина, и колчан со стрелами заставили изменить эту точку зрения. Радиационное исследование показало, что замёрзшему, как минимум, 5 тысяч лет…» Вот такие невероятные совпадения… или пророчества?..

MediaInfo

Общее
Уникальный идентификатор : 214091012769163364628898124525643616205 (0xA1106DE21FCE9F26B3E53AB9FADDCFCD)
Полное имя : N:\BD-DISC\Ghost.Warrior.1984.1080p.BluRay.x264-SADPANDA\Ghost Warrior 1984.x264.BDRip.1080p.3xRus.kosmoaelita.mkv
Формат : Matroska
Версия формата : Version 4 / Version 2
Размер файла : 8,63 Гбайт
Продолжительность : 1 ч. 21 м.
Общий поток : 15,2 Мбит/сек
Название фильма : Ghost Warrior / 1984 / kosmoaelita
Дата кодирования : UTC 2018-12-07 03:22:09
Программа кодирования : mkvmerge v6.6.0 ('The Edge Of The In Between') built on Dec 1 2013 17:55:00
Библиотека кодирования : libebml v1.3.0 + libmatroska v1.4.1
Attachments : poster_.jpg
Видео
Идентификатор : 1
Формат : AVC
Формат/Информация : Advanced Video Codec
Профиль формата : High@L4.1
Параметр CABAC формата : Да
Параметр ReFrames формата : 4 кадра
Идентификатор кодека : V_MPEG4/ISO/AVC
Продолжительность : 1 ч. 21 м.
Битрейт : 13,9 Мбит/сек
Ширина : 1920 пикселей
Высота : 1040 пикселей
Соотношение сторон : 1,85:1
Режим частоты кадров : Постоянный
Частота кадров : 23,976 (24000/1001) кадра/сек
Цветовое пространство : YUV
Субдискретизация насыщенности : 4:2:0
Битовая глубина : 8 бит
Тип развёртки : Прогрессивная
Бит/(Пиксели*Кадры) : 0.291
Размер потока : 7,71 Гбайт (89%)
Заголовок : http://kosmoaelita.com/viewtopic.php?t=2616
Библиотека кодирования : x264 core 148 r2665 a01e339
Настройки программы : cabac=1 / ref=4 / deblock=1:-3:-3 / analyse=0x3:0x113 / me=umh / subme=8 / psy=1 / psy_rd=1.00:0.25 / mixed_ref=1 / me_range=24 / chroma_me=1 / trellis=1 / 8x8dct=1 / cqm=0 / deadzone=21,11 / fast_pskip=1 / chroma_qp_offset=-4 / threads=12 / lookahead_threads=2 / sliced_threads=0 / nr=0 / decimate=1 / interlaced=0 / bluray_compat=0 / constrained_intra=0 / bframes=3 / b_pyramid=2 / b_adapt=2 / b_bias=0 / direct=3 / weightb=1 / open_gop=0 / weightp=2 / keyint=240 / keyint_min=24 / scenecut=40 / intra_refresh=0 / rc_lookahead=50 / rc=2pass / mbtree=1 / bitrate=13937 / ratetol=1.0 / qcomp=0.60 / qpmin=0 / qpmax=69 / qpstep=4 / cplxblur=20.0 / qblur=0.5 / vbv_maxrate=62500 / vbv_bufsize=78125 / nal_hrd=none / filler=0 / ip_ratio=1.40 / aq=1:0.50
Default : Да
Forced : Нет
Аудио #1
Идентификатор : 2
Формат : AC-3
Формат/Информация : Audio Coding 3
Расширение режима : CM (complete main)
Параметр Endianness формата : Big
Идентификатор кодека : A_AC3
Продолжительность : 1 ч. 21 м.
Вид битрейта : Постоянный
Битрейт : 224 Кбит/сек
Каналы : 2 канала
Расположение каналов : Front: L R
Частота : 48,0 КГц
Частота кадров : 31,250 кадров/сек (1536 spf)
Метод сжатия : С потерями
Размер потока : 130 Мбайт (1%)
Заголовок : Русский ПД (НТВ+)
Язык : Russian
Default : Да
Forced : Нет
Аудио #2
Идентификатор : 3
Формат : AC-3
Формат/Информация : Audio Coding 3
Расширение режима : CM (complete main)
Параметр Endianness формата : Big
Идентификатор кодека : A_AC3
Продолжительность : 1 ч. 21 м.
Вид битрейта : Постоянный
Битрейт : 224 Кбит/сек
Каналы : 2 канала
Расположение каналов : Front: L R
Частота : 48,0 КГц
Частота кадров : 31,250 кадров/сек (1536 spf)
Метод сжатия : С потерями
Размер потока : 130 Мбайт (1%)
Заголовок : Русский ПМ (ТВ3)
Язык : Russian
Default : Нет
Forced : Нет
Аудио #3
Идентификатор : 4
Формат : AC-3
Формат/Информация : Audio Coding 3
Расширение режима : CM (complete main)
Параметр Endianness формата : Big
Идентификатор кодека : A_AC3
Продолжительность : 1 ч. 21 м.
Вид битрейта : Постоянный
Битрейт : 224 Кбит/сек
Каналы : 2 канала
Расположение каналов : Front: L R
Частота : 48,0 КГц
Частота кадров : 31,250 кадров/сек (1536 spf)
Метод сжатия : С потерями
Размер потока : 130 Мбайт (1%)
Заголовок : Русский АО (П.Карцев)
Язык : Russian
Default : Нет
Forced : Нет
Аудио #4
Идентификатор : 5
Формат : AC-3
Формат/Информация : Audio Coding 3
Расширение режима : CM (complete main)
Параметр Endianness формата : Big
Идентификатор кодека : A_AC3
Продолжительность : 1 ч. 21 м.
Вид битрейта : Постоянный
Битрейт : 640 Кбит/сек
Каналы : 2 канала
Расположение каналов : Front: L R
Частота : 48,0 КГц
Частота кадров : 31,250 кадров/сек (1536 spf)
Метод сжатия : С потерями
Размер потока : 371 Мбайт (4%)
Язык : English
Default : Нет
Forced : Нет
Текст
Идентификатор : 6
Формат : UTF-8
Идентификатор кодека : S_TEXT/UTF8
Идентификатор кодека/Информация : UTF-8 Plain Text
Язык : English
Default : Да
Forced : Нет
Меню
00:00:00.000 : en:00:00:00.000
00:04:58.173 : en:00:04:58.173
00:14:10.016 : en:00:14:10.016
00:26:00.809 : en:00:26:00.809
00:37:27.036 : en:00:37:27.036
00:52:03.704 : en:00:52:03.704
01:04:57.477 : en:01:04:57.477
01:16:48.813 : en:01:16:48.813

Скриншоты











Скринлист

Файл дополнительно залит на ОБЛАКО
Ghost Warrior 1984.x264.BDRip.1080p.3xRus.kosmoaelita.mkv.torrent
Torrent: Registered [ 2018-12-08 09:33 ]

Download .torrent

Download

22 KB

Status: checked
Completed: 0 times
Size: 8.63 GB
 
[Profile] [PM]

Трамвай-фильм

Gender: Male

Longevity: 6 years 4 months

Posts: 1883

Location: Россия

Post 08-Dec-2018 19:50 (after 10 hours)

[Quote]

что-то я упустил это кино, а прям вкус эпохи чувствуется
[Profile] [PM]
Display posts:    
Reply to topic

Current time is: 05-Dec 09:10

All times are UTC + 3



You cannot post new topics in this forum
You cannot reply to topics in this forum
You cannot edit your posts in this forum
You cannot delete your posts in this forum
You cannot vote in polls in this forum
You cannot attach files in this forum
You can download files in this forum