Филадельфийский эксперимент (ТВ) / The Philadelphia Experiment (TV) (Пол Циллер / Paul Ziller) Мистика, Фантастика, Триллер [2012, США, Канада, HDRip] ПМ (Syfy)

Reply to topic
 
Author Message

Guest ®

Gender: Unknown

Post 13-Oct-2012 21:14

[Quote]

Филадельфийский эксперимент (ТВ) / The Philadelphia Experiment (TV)
Страна: США, Канада
Жанр: Мистика, Фантастика, Триллер
Дата выхода: 2012
Продолжительность: 01:28:53
Перевод: ПМ (Syfy)
Режиссёр: Пол Циллер / Paul Ziller
В ролях: Николас Лиа, Райан Роббинс, Джина Холден, Лауро Чартрэнд, Эллисон Хоссак, Чад Кровчук, Том МакБет, Малкольм МакДауэлл, Майкл Паре, Марк Поусон, Джон Рирдон, Дин Редман, Марша Режис, Эмили Уллерап
О фильме: Правительство возобновляет исследования секретного проекта второй мировой войны "Филадельфийский эксперимент", В котором была предпринята попытка создать устройство маскировки кораблей делая их невидимыми. Если эксперимент удастся, он возвратит корабль (Элдридж), который исчез во время первого испытания в 1943 году - повлекшим смерть и разрушения в 21 веке. Исход зависит от, единственного оставшегося в живых, участника первого эксперимента (Lea) и его внучки (Ullerup).BDRip-1080pКачество: HDRip
Формат: AVI
Видео: XviD, 1614 Кбит/с, 720x400
Аудио 1: Русский ПМ (Syfy) (AC3, 2 ch, 192 Кбит/с)
Аудио 2: Английский (AC3, 6 ch, 384 Кбит/с)


Релиз

Для Украины: рип и оригинальный ДВД дополнительно залиты в файлохранилище
Для удаления и добавления дорожек в mkv используйте бесплатную mkvmerge GUI 5.80

Дополнительно

это новый вариант фильма 1984 года США Режиссёр - Стюарт Рэффил
есть еще фильм «Филадельфийский эксперимент II» 1993 года США РежиссёрСтивен Корнуэлл
Единственный оставшийся в живых после первого эксперимента Леа и его внучка, пытаются остановить это безумие
Also Known As (AKA)
Eksperyment 'Filadelfia' Poland (imdb display title)

Рецензия

MediaInfo

Общее
Полное имя : F:\Downloads\Filadelfijskij.eksperiment.2012.P.HDRip.1400Mb.avi
Формат : AVI
Формат/Информация : Audio Video Interleave
Размер файла : 1,37 Гбайт
Продолжительность : 1 ч. 28 м.
Общий поток : 2204 Кбит/сек
Программа кодирования : VirtualDubMod 1.5.10.3 | www.virtualdub-fr.org || (build 2550/release)
Библиотека кодирования : VirtualDubMod build 2550/release
Видео
Идентификатор : 0
Формат : MPEG-4 Visual
Профиль формата : Advanced Simple@L5
Параметр BVOP формата : 2
Параметр QPel формата : Нет
Параметр GMC формата : Без точки перехода
Параметр матрицы формата : Default (MPEG)
Идентификатор кодека : XVID
Идентификатор кодека/Подсказка : XviD
Продолжительность : 1 ч. 28 м.
Битрейт : 1614 Кбит/сек
Ширина : 720 пикселей
Высота : 400 пикселей
Соотношение сторон : 16:9
Частота кадров : 23,976 кадра/сек
Цветовое пространство : YUV
Субдискретизация насыщенности : 4:2:0
Битовая глубина : 8 бит
Тип развёртки : Прогрессивная
Метод сжатия : С потерями
Бит/(Пиксели*Кадры) : 0.234
Размер потока : 1,00 Гбайт (73%)
Библиотека кодирования : XviD 63
Аудио #1
Идентификатор : 1
Формат : AC-3
Формат/Информация : Audio Coding 3
Расширение режима : CM (complete main)
Параметр Endianness формата : Big
Идентификатор кодека : 2000
Продолжительность : 1 ч. 28 м.
Вид битрейта : Постоянный
Битрейт : 192 Кбит/сек
Каналы : 2 канала
Расположение каналов : Front: L R
Частота : 48,0 КГц
Битовая глубина : 16 бит
Метод сжатия : С потерями
Размер потока : 122 Мбайт (9%)
Выравнивание : Разделение по промежуткам
Продолжительность промежутка : 42 мс. (1,00 видеокадр)
Время предзагрузки промежутка : 500 мс.
Аудио #2
Идентификатор : 2
Формат : AC-3
Формат/Информация : Audio Coding 3
Расширение режима : CM (complete main)
Параметр Endianness формата : Big
Идентификатор кодека : 2000
Продолжительность : 1 ч. 28 м.
Вид битрейта : Постоянный
Битрейт : 384 Кбит/сек
Каналы : 6 каналов
Расположение каналов : Front: L C R, Side: L R, LFE
Частота : 48,0 КГц
Битовая глубина : 16 бит
Метод сжатия : С потерями
Размер потока : 244 Мбайт (17%)
Выравнивание : Разделение по промежуткам
Продолжительность промежутка : 42 мс. (1,00 видеокадр)
Время предзагрузки промежутка : 500 мс.

Пример субтитров

1
00:00:06,254 --> 00:00:12,254
Филадельфийский эксперимент
2
00:00:29,655 --> 00:00:31,950
Будь хорошим, Фолкнер.
3
00:00:32,737 --> 00:00:37,531
-Эй, ты можешь припарковать автомобиль Мисс Мур?
-Да, сэр.
4
00:00:39,602 --> 00:00:44,366
Зависит от того, что ты Кэтрин подразумеваешь
под хорошим- мороженое хорошо, как и пицца.
5
00:00:44,781 --> 00:00:49,324
Вниз по улице, в пиццерии,
пицца лучше, чем секс.
6
00:00:49,705 --> 00:00:53,477
Ближе к делу.
Ты говорил мне, что есть успехи в работе?
7
00:00:53,865 --> 00:00:57,943
Я говорю вам, что мы,
и то, что я,
8
00:00:58,349 --> 00:01:02,599
сможем редактировать войны в 21-м веке.
9
00:01:11,666 --> 00:01:15,295
Система на запуск,
мы поставим на испытания автомобиль.
10
00:01:24,239 --> 00:01:30,369
Мой автомобиль?
-Расслабься, это автомобиль компании.
11
00:01:35,555 --> 00:01:38,590
ОК, ребята,
Всем занять свои места.
12
00:01:46,741 --> 00:01:48,910
Команда на включение.
13
00:01:55,073 --> 00:01:57,718
Мощность на 240 процентов.
14
00:02:00,539 --> 00:02:04,220
Тесла 16 единиц и продолжает расти.
-Пуск-гауссовский процесс.
15
00:02:16,568 --> 00:02:22,615
Я думаю, что это безопасно?
-Более-менее. -24 Тесла.
16
00:02:25,658 --> 00:02:29,871
Никакого эффекта.
-Давайте, не сдаемся.
17
00:02:30,819 --> 00:02:32,840
Сейчас.
18
00:02:39,491 --> 00:02:43,432
32 тесла и продолжает расти.
Я надеюсь, вы знаете, что вы делаете.
19
00:02:44,798 --> 00:02:46,814
Абракадабра.
20
00:03:02,959 --> 00:03:06,742
Впечатленны?

Скриншоты



cd Рип дополнительно залит на ОБЛАКО cd2
 

admin

Gender: Male

Longevity: 7 years

Posts: 4725

Location: Україна

Post 14-Oct-2012 06:10 (after 8 hours)

[Quote]

Да, только могли бы сами залить в рубрике фильмы 2012 года, используя готовый торрент с других трекеров.
Спасибо.
[Profile] [PM]

bot

Post 14-Oct-2012 06:17 (after 6 minutes)

Топик был перенесен из форума Все обо всем в форум 2012

admin
 

Guest ®

Gender: Unknown

Post 07-Nov-2012 18:50 (after 24 days)

[Quote]

мой перевод-хехе
 

admin

Gender: Male

Longevity: 7 years

Posts: 4725

Location: Україна

Post 07-Nov-2012 21:48 (after 2 hours 58 minutes)

[Quote]

С какого языка?
Марсианского или лунного ab
[Profile] [PM]

admin

Gender: Male

Longevity: 7 years

Posts: 4725

Location: Україна

Post 26-Dec-2012 17:34 (after 1 month 18 days)

[Quote]

Перезалито в лучшем качестве
[Profile] [PM]

admin

Gender: Male

Longevity: 7 years

Posts: 4725

Location: Україна

Post 18-Jan-2013 04:38 (after 22 days)

[Quote]

Добавлена проф. озвучка
[Profile] [PM]
Quick Reply

Name:

            
Heads necessary to send messages to enable JavaScript
Display posts:    
Reply to topic

Current time is: 21-Sep 01:58

All times are UTC + 3



You cannot post new topics in this forum
You can reply to topics in this forum
You cannot edit your posts in this forum
You cannot delete your posts in this forum
You cannot vote in polls in this forum
You cannot attach files in this forum
You cannot download files in this forum