Франкенштейн создал женщину / Frankenstein Created Woman (Теренс Фишер / Terence Fisher) [1967, Великобритания, Ужасы, фантастика, BDRip-1080p] ПМ (5 канал)

Reply to topic
 
Author Message

Guest

Gender: Unknown

Longevity: 50 years

Post 20-Nov-2018 20:30

[Quote]

Франкенштейн создал женщину / Frankenstein Created Woman
Страна: Великобритания
Жанр: Ужасы, фантастика
Год выпуска: 1967
Продолжительность: 01:31:40
Перевод: Профессиональный (многоголосый) 5 канал
Режиссер: Теренс Фишер / Terence Fisher
В ролях:
Peter Cushing ... Baron Frankenstein
Susan Denberg ... Christina
Thorley Walters ... Doctor Hertz
Robert Morris ... Hans
Duncan Lamont ... The Prisoner
Peter Blythe ... Anton
Barry Warren ... Karl
Derek Fowlds ... Johann
Alan MacNaughtan ... Kleve
Peter Madden ... Chief of Police
Philip Ray ... Mayor
Ivan Beavis ... Landlord
Colin Jeavons ... Priest
Bartlett Mullins ... Bystander
Alec Mango ... Spokesman
Описание: Ганс любил Кристину, дочку трактирщика, но её отец был против. Когда трактирщика убили, подозрение пало на Ганса, и его приговорили к смерти. После казни любимого Кристина и сама находит утешение в речных волнах. Тело девушки и мятежный дух без вины убитого – как раз то, что надо доктору Франкенштейну. Он оживляет красотку, вселив в нее душу Ганса, и теперь обидчикам не уйти от кары…
Качество видео: BDRip-1080p
Формат: MKV
Видео: x264, 8329 кбит/с, 1920x1080, 24 к/с
Аудио 1: Русский ПМ (AC3, 2 ch, 192 Кбит/с)
Аудио 2: Английский (AC3, 2 ch, 192 Кбит/с)
Работа над релизом:
Видеоряд найден на rarbg2018.org
Синхронизация русской дорожки - kosmoaelita



Пример русского перевода

Дополнительно

Also Known As (AKA)
(original title) Frankenstein Created Woman
Brazil ...E Frankenstein Criou a Mulher
UK (working title) And Frankenstein Created Woman
Portugal Frankenstein Criou Uma Mulher
Frankenstein Made Woman
Spain Frankenstein creó a la mujer
France Frankenstein créa la femme
Finland (Swedish title) (informal title) Frankenstein fängslade själen
Hungary Frankenstein nőt alkotott
West Germany Frankenstein schuf ein Weib
Poland Frankenstein stworzyl kobiete
Finland (informal title) Frankenstein vangitsi sielun
Sweden Frankensteins djävulska dotter
Greece (transliterated ISO-LATIN-1 title) I mnisti tou Frankenstein
Italy La maledizione dei Frankenstein
Norway (alternative title) Udyret Frankenstein
Colombia Y Frankenstein creó a la mujer
Uruguay (original subtitled version) Y Frankenstein creó a la mujer
Greece Η μνηστή του Φρανκενστάιν
Soviet Union (Russian title) Франкенштейн создал женщину
слоган «The Ultimate in Evil!»

Отзывы

Немного глуповато, но снято хорошо. Франки от Хаммера мне нравится больше, чем от Юниверсл.

MediaInfo

Общее
Уникальный идентификатор : 221247035908543300084277837883238277523 (0xA672A11063728E8C99EDDD751EE06193)
Полное имя : N:\BD-DISC\Frankenstein Created Woman (1967)\Frankenstein.Created.Woman.1967.720p.BluRay.X264-Japhson\Frankenstein Created Woman 1967.x264.BDRip.1080p.Rus.kosmoaelita.mkv
Формат : Matroska
Версия формата : Version 4 / Version 2
Размер файла : 5,58 Гбайт
Продолжительность : 1 ч. 31 м.
Общий поток : 8717 Кбит/сек
Название фильма : Frankenstein Created Woman / 1967 / kosmoaelita
Дата кодирования : UTC 2018-11-20 13:36:25
Программа кодирования : mkvmerge v6.6.0 ('The Edge Of The In Between') built on Dec 1 2013 17:55:00
Библиотека кодирования : libebml v1.3.0 + libmatroska v1.4.1
Attachments : poster_.jpg
Видео
Идентификатор : 1
Формат : AVC
Формат/Информация : Advanced Video Codec
Профиль формата : High@L4.1
Параметр CABAC формата : Да
Параметр ReFrames формата : 4 кадра
Идентификатор кодека : V_MPEG4/ISO/AVC
Продолжительность : 1 ч. 31 м.
Битрейт : 8329 Кбит/сек
Ширина : 1920 пикселей
Высота : 1080 пикселей
Соотношение сторон : 16:9
Режим частоты кадров : Постоянный
Частота кадров : 24,000 кадра/сек
Цветовое пространство : YUV
Субдискретизация насыщенности : 4:2:0
Битовая глубина : 8 бит
Тип развёртки : Прогрессивная
Бит/(Пиксели*Кадры) : 0.167
Размер потока : 5,22 Гбайт (94%)
Заголовок : http://kosmoaelita.com/viewtopic.php?t=2603
Библиотека кодирования : x264 core 140 r2377 1ca7bb9
Настройки программы : cabac=1 / ref=4 / deblock=1:-1:-1 / analyse=0x3:0x113 / me=umh / subme=7 / psy=1 / psy_rd=1.00:0.00 / mixed_ref=1 / me_range=16 / chroma_me=1 / trellis=1 / 8x8dct=1 / cqm=0 / deadzone=21,11 / fast_pskip=1 / chroma_qp_offset=-2 / threads=12 / lookahead_threads=2 / sliced_threads=0 / nr=0 / decimate=1 / interlaced=0 / bluray_compat=0 / constrained_intra=0 / bframes=3 / b_pyramid=2 / b_adapt=2 / b_bias=0 / direct=3 / weightb=1 / open_gop=0 / weightp=2 / keyint=250 / keyint_min=24 / scenecut=40 / intra_refresh=0 / rc_lookahead=40 / rc=2pass / mbtree=1 / bitrate=8329 / ratetol=1.0 / qcomp=0.60 / qpmin=0 / qpmax=69 / qpstep=4 / cplxblur=20.0 / qblur=0.5 / vbv_maxrate=50000 / vbv_bufsize=50000 / nal_hrd=none / filler=0 / ip_ratio=1.40 / aq=1:1.00
Язык : English
Default : Да
Forced : Нет
Аудио #1
Идентификатор : 2
Формат : AC-3
Формат/Информация : Audio Coding 3
Расширение режима : CM (complete main)
Параметр Endianness формата : Big
Идентификатор кодека : A_AC3
Продолжительность : 1 ч. 31 м.
Вид битрейта : Постоянный
Битрейт : 192 Кбит/сек
Каналы : 2 канала
Расположение каналов : Front: L R
Частота : 48,0 КГц
Частота кадров : 31,250 кадров/сек (1536 spf)
Метод сжатия : С потерями
Размер потока : 126 Мбайт (2%)
Заголовок : Русский ПМ (5 канал)
Язык : Russian
Default : Да
Forced : Нет
Аудио #2
Идентификатор : 3
Формат : AC-3
Формат/Информация : Audio Coding 3
Расширение режима : CM (complete main)
Параметр Endianness формата : Big
Идентификатор кодека : A_AC3
Продолжительность : 1 ч. 31 м.
Вид битрейта : Постоянный
Битрейт : 192 Кбит/сек
Каналы : 2 канала
Расположение каналов : Front: L R
Частота : 48,0 КГц
Частота кадров : 31,250 кадров/сек (1536 spf)
Метод сжатия : С потерями
Размер потока : 126 Мбайт (2%)
Язык : English
Default : Нет
Forced : Нет

Скриншоты




















Скринлист

Файл дополнительно залит на ОБЛАКО
[Profile] [PM]
Display posts:    
Reply to topic

Current time is: 29-Oct 00:11

All times are UTC + 3



You cannot post new topics in this forum
You cannot reply to topics in this forum
You cannot edit your posts in this forum
You cannot delete your posts in this forum
You cannot vote in polls in this forum
You cannot attach files in this forum
You cannot download files in this forum