Ночной мир: 30 лет жизни / Nightworld: 30 Years to Life / Nightworld 30 Years to Life (Майкл Тачнер / Michael Tuchne) [1998, Канада, США, Люксембург, Фантастика, триллер, драма, VHSRip] АО (С.Визгунов)

Reply to topic
 
Author Message

Guest

Gender: Unknown

Longevity: 50 years

Post 19-Nov-2018 02:22

[Quote]

Ночной мир: 30 лет жизни / Nightworld: 30 Years to Life / Nightworld 30 Years to Life
Страна: Канада, США, Люксембург, Alliance Communications Corporation, Chesler/Perlmutter Productions, CLT-UFA International, Delux Productions
Жанр: Фантастика, триллер, драма
Год выпуска: 1998
Продолжительность: 01:30:02
Перевод: Авторский (одноголосый) С.Визгунов с VHS
Режиссер: Майкл Тачнер / Michael Tuchne
В ролях:
Robert Hays ... Vincent Dawson
Hugh O'Conor ... Vinnie Dawson
Amy Robbins ... Darla
Mirabelle Kirkland ... Gweneth
Christien Anholt ... Derek
Gabrielle Lazure ... Kate
Jana Shelden ... Norreen
Zoot Lynam ... Kyle
Doug Haley ... Ben
Geoffrey Bateman ... Detective Sidney
Vernon Dobtcheff ... Sandor
Michael Shannon ... Graham (as Michael J. Shannon)
Michael Byrne ... Oliver Mather
Josie D'Arby ... Lucy (as Josephine D'Arby)
Kenny Seymour ... Manager
Описание: В отдалённом будущем отпадает необходимость в тюрьмах: вместо тюремного заключения тела преступников просто искусственно состаривают на нужное количество лет. Однажды жертвой этой процедуры становится 15-летний парень, обвинённый в убийстве своего отчима. Приговорённый к тридцати годам, подросток оказывается в теле взрослого мужчины, но решает всё-таки доказать свою невиновность.
Качество видео: VHSRip
Формат: MKV
Видео: x264, 1200 кбит/с, 640x452, 29.014 к/с
Аудио 1: Русский АО (AC3, 2 ch, 224 Кбит/с)
Аудио 2: Английский (AC3, 2 ch, 192 Кбит/с)
Работа над релизом:
Видеоряд найден на ютубе
Оцифровка русской дорожки - 21Sepsis
Замена "булькающих" фрагментов на качественные с англ. дорожки - kosmoaelita



Пример русского авторского перевода

Дополнительно

Also Known As (AKA)
(original title) Nightworld: 30 Years to Life
USA 30 Years to Life
Hungary Az idő bírái
Canada (English title) (alternative title) Nightworld: 30 Years to Life
France Séjour en enfer
Germany (alternative title) Time Out - Die Zeit läuft ab
Germany (DVD title) Time Out - Richter der Zeit

Отзывы

Гениальный фильм гениального режиссера !!! А Роберт Хэйс сыграл свою роль в этом фильме просто потрясно !!!

MediaInfo

Общее
Уникальный идентификатор : 212999543922387771434876838382493107271 (0xA03E38507C043D6397438715F0560447)
Полное имя : N:\BD-DISC\Nightworld 30 Years to Life 1998.XviD.VHSRip.Rus.kosmoaelita.mkv
Формат : Matroska
Версия формата : Version 4 / Version 2
Размер файла : 1,02 Гбайт
Продолжительность : 1 ч. 30 м.
Общий поток : 1618 Кбит/сек
Название фильма : Nightworld: 30 Years to Life / 1998 / kosmoaelita
Дата кодирования : UTC 2018-11-19 17:36:39
Программа кодирования : mkvmerge v6.6.0 ('The Edge Of The In Between') built on Dec 1 2013 17:55:00
Библиотека кодирования : libebml v1.3.0 + libmatroska v1.4.1
Attachments : POSTER.jpg
Видео
Идентификатор : 1
Формат : AVC
Формат/Информация : Advanced Video Codec
Профиль формата : High@L4.1
Параметр CABAC формата : Да
Параметр ReFrames формата : 8 кадров
Идентификатор кодека : V_MPEG4/ISO/AVC
Продолжительность : 1 ч. 30 м.
Битрейт : 1200 Кбит/сек
Ширина : 640 пикселей
Высота : 452 пикселя
Соотношение сторон : 1,416
Режим частоты кадров : Постоянный
Частота кадров : 29,014 кадров/сек
Цветовое пространство : YUV
Субдискретизация насыщенности : 4:2:0
Битовая глубина : 8 бит
Тип развёртки : Прогрессивная
Бит/(Пиксели*Кадры) : 0.143
Размер потока : 754 Мбайт (72%)
Заголовок : http://kosmoaelita.com/viewtopic.php?t=2601
Библиотека кодирования : x264 core 130 r2273 b3065e6
Настройки программы : cabac=1 / ref=8 / deblock=1:-3:-3 / analyse=0x3:0x133 / me=umh / subme=10 / psy=1 / psy_rd=0.99:0.14 / mixed_ref=1 / me_range=24 / chroma_me=1 / trellis=2 / 8x8dct=1 / cqm=0 / deadzone=21,11 / fast_pskip=1 / chroma_qp_offset=-3 / threads=6 / lookahead_threads=1 / sliced_threads=0 / nr=0 / decimate=1 / interlaced=0 / bluray_compat=0 / constrained_intra=0 / bframes=8 / b_pyramid=2 / b_adapt=2 / b_bias=0 / direct=3 / weightb=1 / open_gop=0 / weightp=2 / keyint=210 / keyint_min=21 / scenecut=40 / intra_refresh=0 / rc_lookahead=80 / rc=2pass / mbtree=1 / bitrate=1200 / ratetol=1.0 / qcomp=0.65 / qpmin=0 / qpmax=69 / qpstep=4 / cplxblur=20.0 / qblur=0.5 / ip_ratio=1.25 / aq=1:0.90
Язык : English
Default : Да
Forced : Нет
Аудио #1
Идентификатор : 2
Формат : AC-3
Формат/Информация : Audio Coding 3
Расширение режима : CM (complete main)
Параметр Endianness формата : Big
Идентификатор кодека : A_AC3
Продолжительность : 1 ч. 30 м.
Вид битрейта : Постоянный
Битрейт : 224 Кбит/сек
Каналы : 2 канала
Расположение каналов : Front: L R
Частота : 48,0 КГц
Частота кадров : 31,250 кадров/сек (1536 spf)
Метод сжатия : С потерями
Размер потока : 144 Мбайт (14%)
Заголовок : Русский АО (С.Визгуов) с VHS
Язык : Russian
Default : Да
Forced : Нет
Аудио #2
Идентификатор : 3
Формат : AC-3
Формат/Информация : Audio Coding 3
Расширение режима : CM (complete main)
Параметр Endianness формата : Big
Идентификатор кодека : A_AC3
Продолжительность : 1 ч. 30 м.
Вид битрейта : Постоянный
Битрейт : 192 Кбит/сек
Каналы : 2 канала
Расположение каналов : Front: L R
Частота : 48,0 КГц
Частота кадров : 31,250 кадров/сек (1536 spf)
Метод сжатия : С потерями
Размер потока : 124 Мбайт (12%)
Язык : English
Default : Нет
Forced : Нет

Скриншоты

















Скринлист

Файл дополнительно залит на ОБЛАКО
[Profile] [PM]
Display posts:    
Reply to topic

Current time is: 01-Oct 15:21

All times are UTC + 3



You cannot post new topics in this forum
You cannot reply to topics in this forum
You cannot edit your posts in this forum
You cannot delete your posts in this forum
You cannot vote in polls in this forum
You cannot attach files in this forum
You cannot download files in this forum