Механический Нарушитель Хакайдер / Mechanical Violator Hakaider / Roboman Hakaider / Jinzo ningen Hakaida (Кейта Амэмия / Keita Amemiya) [1995, Япония, Фантастика, боевик, DVDRip-AVC] СТ (toxist)

Reply to topic
 
Author Message

AlexNT60

Gender: Male

Longevity: 6 years 9 months

Posts: 114

Location: СПб

Post 17-Nov-2018 21:54

[Quote]

Механический Нарушитель Хакайдер / Mechanical Violator Hakaider / Roboman Hakaider / Jinzo ningen Hakaida
Страна: Япония, Graphical Corporation Crowd Inc., Toei Co. Ltd.
Жанр: фантастика, боевик
Год выпуска: 1995
Продолжительность: 01:17:29
Перевод: Субтитры toxist
Cубтитры: русские/английские
Режиссер: Кейта Амэмия / Keita Amemiya
В ролях: Маи Хошо, Наоки Асо, Боб Бучольц, Шигеру Чиба, Ясуаки Хонда, Казухико Иноэ,Масая Като
Описание: Банда авантюристов-искателей сокровищ исследуя заброшеные катакомбы натыкается на заточённого там человека. Этим "человеком" оказывается Хакайдер. Попытка банды атаковать его приводит к плачевным результатам. Порубив засранцев в капусту он садится на мотоцикл и дорога приводит его в Город Иисуса. Там живёт красивая девушка Каору, которая много лет видит один и тот же сон о чёрном рыцаре убивающем ангела-мертвеца.
Возможно её сон был вещим...

Доп. информация: Субтитры из раздачи на рутрекере
Качество видео: DVDRip-AVC
Формат видео: MKV
Видео: x264, 1444 кбит/с, 960x464, 29.97 к/с
Аудио: Английский (AC3, 2 ch, 192 Кбит/с)
Аудио 2: Японский (AC3, 2 ch, 192 Кбит/с)
Формат субтитров: softsub (SRT)
Работа над релизом:




Пример русского перевода
[vkontakte][/vkontakte]

Дополнительно

Also Known As (AKA)
(original title) Jinzô ningen Hakaidâ
Asia (English title) Humanoid Hakaider
USA Mechanical Violator Hakaider
Greece (transliterated ISO-LATIN-1 title) O Paravatis tou Nomou
USA Roboman Hakaider
Greece Ο Παραβάτης του Νόμου

Знаете ли вы, что...

Отзывы

Ой шикарно!!!!!
Слушайте, ей богу, креативности одного японца Амемии в создании такой вот безумной машинерии хватит на десять фильмов белых кино-фантастов. У него конечно есть совершенно непонятные мне затупы по части ритма и скорости боевых сцен, странные, с точки зрения сценария поворотцы, общая сюжетная примитивность, но эта придирка относится по большому счету к большинству японцев - понять, чем они руководствуются в сюжетопостроении мне всегда было сложно
В основном-же, все, что касается дизайнов в фильме - доспехи Хакайдера, Михаила, гвардейцев (кардинала смайлик+)) дизайна оружия, интерьеров, костюмов повстанцев, проработки эффектов и интерфейсов компьютеров, - все на столько круто и безбашенно, что пересматривать хочется на стоп-кадрах. Для 95 года и, подозреваю, невысокого бюджета фильма - просто ВЕЛИКОЛЕПНО.
Проработка доспехов, деталировка и качество - выше всех похвал даже по нынешним временам.
Финальный поединок Хакайдера с Михаилом вобще обставлен замечательно - одни сюрные "кровавые раны" на стенах и колоннах чего стоят !!! Блестяще !!!
А костюм "Гурджиева" (я сам его так прозвал про себя с мертвой птицей на плече - это вовсе восхитительная шиза смайлик+)) и расчудесный фэшшн-абсурд.
Кружащиеся перья, ослепительно белые "хоромы" Джизус-Тауна, наивные до изумления девичьи мечты Каору, черный рыцарь на черном коне, разрубающий оковы - до такой степени сказочной непосредственности могут доходить только Японцы, по моему. Причем в полу-детском спектакле на героическую тематику япошки изящно-небрежно умудряются поставить все на уши, сделать белое-черным, черное - белым, нафаршировать персонажей вторыми смыслами, библейскими аллюзиями, походя высмеять бело-христианскую мифологию и невинно обставить едва-ли не шутейные поединки брутальным членовредительством в виде растоптаных голов и оторваных рук...
Красота и упоение. Совершенно непредсказуемый и по детски-наивный коктейль из сказочной мистики и жесткой фантастики. Можно назвать детским фильмом, а можно и в сюрреализЪм... Невероятно жаль, что я не видел этого в своем детстве смайлик+)) Уверен, Хакайдер стал бы моим любимым героем смайлик+)))
Изумительно.
-----------------------------------
не.. ну что это было ??
какието перья сыпятся из киборгов.. звон мусорных баков при попадании пуль.. начальники с крыльями.. роботы с мотоцыклами
японцы совсем сбрендили
-----------------------------------

Рецензия

MediaInfo

General
Unique ID : 288031506892949757600355210505279304718 (0xD8B0D9B427E9CB2460B0BF94EA28F40E)
Complete name : F:\Torrent\Mechanical.Violator.Hakaider.1995.DVDRip.x264.mkv
Format : Matroska
Format version : Version 4
File size : 1 014 MiB
Duration : 1 h 17 min
Overall bit rate : 1 830 kb/s
Movie name : Mechanical Violator Hakaider (1995)
Encoded date : UTC 2018-11-17 16:44:17
Writing application : mkvmerge v28.2.0 ('The Awakening') 64-bit
Writing library : libebml v1.3.6 + libmatroska v1.4.9
Cover : Yes
Attachments : Cover.jpg
Video
ID : 1
Format : AVC
Format/Info : Advanced Video Codec
Format profile : High@L3.1
Format settings : CABAC / 8 Ref Frames
Format settings, CABAC : Yes
Format settings, ReFrames : 8 frames
Codec ID : V_MPEG4/ISO/AVC
Duration : 1 h 17 min
Bit rate : 1 444 kb/s
Width : 960 pixels
Height : 464 pixels
Display aspect ratio : 1.85:1
Original display aspect ratio : 16:9
Frame rate mode : Constant
Frame rate : 29.970 FPS
Color space : YUV
Chroma subsampling : 4:2:0
Bit depth : 8 bits
Scan type : Progressive
Bits/(Pixel*Frame) : 0.108
Stream size : 800 MiB (79%)
Writing library : x264 core 146 r2538M 121396c
Encoding settings : cabac=1 / ref=8 / deblock=1:0:0 / analyse=0x3:0x133 / me=umh / subme=9 / psy=1 / psy_rd=1.00:0.00 / mixed_ref=1 / me_range=16 / chroma_me=1 / trellis=2 / 8x8dct=1 / cqm=0 / deadzone=21,11 / fast_pskip=1 / chroma_qp_offset=-2 / threads=9 / lookahead_threads=1 / sliced_threads=0 / nr=0 / decimate=1 / interlaced=0 / bluray_compat=0 / constrained_intra=0 / bframes=3 / b_pyramid=2 / b_adapt=2 / b_bias=0 / direct=3 / weightb=1 / open_gop=0 / weightp=2 / keyint=250 / keyint_min=25 / scenecut=40 / intra_refresh=0 / rc_lookahead=60 / rc=crf / mbtree=1 / crf=20.0 / qcomp=0.60 / qpmin=0 / qpmax=69 / qpstep=4 / ip_ratio=1.40 / aq=1:1.00
Default : Yes
Forced : No
Audio #1
ID : 2
Format : AC-3
Format/Info : Audio Coding 3
Commercial name : Dolby Digital
Codec ID : A_AC3
Duration : 1 h 17 min
Bit rate mode : Constant
Bit rate : 192 kb/s
Channel(s) : 2 channels
Channel layout : L R
Sampling rate : 48.0 kHz
Frame rate : 31.250 FPS (1536 SPF)
Bit depth : 16 bits
Compression mode : Lossy
Stream size : 106 MiB (10%)
Language : English
Service kind : Complete Main
Default : Yes
Forced : No
Audio #2
ID : 3
Format : AC-3
Format/Info : Audio Coding 3
Commercial name : Dolby Digital
Codec ID : A_AC3
Duration : 1 h 17 min
Bit rate mode : Constant
Bit rate : 192 kb/s
Channel(s) : 2 channels
Channel layout : L R
Sampling rate : 48.0 kHz
Frame rate : 31.250 FPS (1536 SPF)
Bit depth : 16 bits
Compression mode : Lossy
Stream size : 106 MiB (10%)
Language : Japanese
Service kind : Complete Main
Default : No
Forced : No
Text #1
ID : 4
Format : UTF-8
Codec ID : S_TEXT/UTF8
Codec ID/Info : UTF-8 Plain Text
Duration : 1 h 15 min
Bit rate : 23 b/s
Count of elements : 296
Stream size : 12.7 KiB (0%)
Language : Russian
Default : Yes
Forced : No
Text #2
ID : 5
Format : UTF-8
Codec ID : S_TEXT/UTF8
Codec ID/Info : UTF-8 Plain Text
Duration : 1 h 14 min
Bit rate : 13 b/s
Count of elements : 295
Stream size : 7.17 KiB (0%)
Language : English
Default : No
Forced : No

Скриншоты











Скринлист

Файл дополнительно залит на ОБЛАКО
[Profile] [PM]
Quick Reply

Name:

            
Heads necessary to send messages to enable JavaScript
Display posts:    
Reply to topic

Current time is: 12-Nov 09:00

All times are UTC + 3



You cannot post new topics in this forum
You can reply to topics in this forum
You cannot edit your posts in this forum
You cannot delete your posts in this forum
You cannot vote in polls in this forum
You cannot attach files in this forum
You cannot download files in this forum