Подразделение "Т" / Подразделение Т / Неуправляемая сила / T-Force (Ричард Пепин / Richard Pepin) [1994, США, Фантастика, боевик, BDRip-1080p] ПД (ДТВ), АО (Л.Володарский)

Reply to topic
 
Author Message

Guest

Gender: Unknown

Longevity: 50 years

Post 13-Nov-2018 21:11

[Quote]

Подразделение "Т" / Подразделение Т / Неуправляемая сила / T-Force
Страна: США, PM Entertainment Group Inc.
Жанр: Фантастика, боевик
Год выпуска: 1994
Продолжительность: 01:41:03
Перевод 1: Профессиональный (двухголосый) ДТВ
Перевод 2: Авторский (одноголосый) Л.Володарский
Режиссер: Ричард Пепин / Richard Pepin
В ролях:
Jack Scalia ... Lt. Jack Floyd
Evan Lurie ... Adam
Erin Gray ... Mayor Pendleton
Bobby Johnston ... Cain
Deron McBee ... Zeus
Jennifer MacDonald ... Mandragora
Martin E. Brooks ... Dr. Jonathan Gant
Vernon Wells ... Samuel Washington
Nick DeMauro ... Sergeant Johnston
Sean Moran ... Peter Deserek
Duke Stroud ... Chief Richman
R. David Smith ... Athens
Robert Gallo ... Dick
Thom Bosco ... Al
Christopher Jackson ... Clem (as Chris Jackson)
Описание: Подразделение «Т» (от слова «terminate» — терминировать, уничтожить — терминатор) состоит из четырех киборгов. Они проникают в здание иностранного представительства, захваченное террористами. В здании находятся заложники, а в их числе и посол Великобритании.
Качество видео: BDRip-1080p
Формат: MKV
Видео: x264, 11900 кбит/с, 1920x1080, 23.976 к/с
Аудио 1: Русский ПД (AC3, 2 ch, 192 Кбит/с)
Аудио 2: Русский АО (AC3, 2 ch, 192 Кбит/с)
Аудио 3: Английский (AC3, 6 ch, 448 Кбит/с)
Работа над релизом:
Видеоряд найден на rarbg2018.org
Синхронизация русских дорожек - kosmoaelita



Пример русского перевода от ДТВ

Дополнительно

Also Known As (AKA)
Brazil Força-T - O Esquadrão de Aço
Brazil (TV title) O Esquadrão de Aço
Germany Dark Force - Aliens in Black
Germany (TV title) Terminal Force
Spain Creados para obedecer
Finland T-force - tuhon partio
France (TV title) Terminal Force
Hungary T-Force - Pusztításra programozva
Съёмки: 22 февраля 1994 — нет данных
Формат изображения: 1.85 : 1
Формат копии: 35 mm
Формат съёмок: 35 mm
Изображение: цветное
Язык: английский

Отзывы

А вот это фильм, в отличии от Отряда с Жаном Рено, я посмотрела с удовольствием. И тема избитая, и актеры не великие и не знаменитые.А добротно снят, хорошо поставлены сцены драк ( для моих мальчишек), и главное ШЕСТЬ главных ролей и каждая проработана со вкусом
------------------------------
PM Entertainment продюсерский дуэт Пепин и Мерхи специализировались на боевиках, фантастике и фильмах о восточных единоборствах, это фильмы класса В, актёрская игра в некоторых фильмах более менее приличная, сюжет зачастую тривиален, но во главе угла ставились экшн сцены, в этих фильмах куча взрывов, погонь и перестрелок, и снято это очень неплохо, зрелищно. Сравнивать T-force и Универсального солдата не берусь, разный уровень, что касается первого, для своего класса фильм сделан замечательно. Те кто знаком с продукцией PM Entertainment, и любит их картины, фильм понравится. Я в детстве просто тащился от "Гнева" с Гэри Дэниэлсом и "Голографического человека", сейчас эффект от просмотра уже не тот, но пресловутая ностальгия...
------------------------------
да, крууто, с удовольствием посмотрели с соседом, захватывающий боевик с неким сюжетом, игра актеров очень понравилась!
здорово сделано, ччерт побери
------------------------------
Смотрел очень давно...не помнится..Скалия тут злодея играет?

Рецензия

Мы в ответе за свои творения
В 80-е 90-е годы было снято немало фильмов про киборгов, хороших и плохих. Тогда же были сняты «Робокоп», культовый «Терминатор» Джеймса Камерона, «Киборг» и «Немезида» Альберта Пьюна, которые имели продолжения. В те времена были сняты и картины про киборгов, которые уже почти забыты.
Режиссёр Ричард Пепин находился в тени своих знаменитых коллег. Но «Подразделение Т» 1994 года и сейчас смотрится с интересом. Автор работал со многими известными актёрами, такими, как Лоренцо Ламас, Гери Дениэлс, Карлос Лаучу, Джефф Фейхи, Гэри Бьюзи, Майкл Мэдсен, Джек Скалия и множеством других известных актёров. Многие у нас помнят помнят его боевики по многочисленным кассетам.
«Подразделение Т» является одной из совместных работ Скалии и Пепина.
Действия картины начинаются с того, что здание с важными правительственными чиновниками захвачено бандитами. Чтобы их обезвредить с минимальным числом жертв, на место присылают хорошо обученную команду киборгов, которая себя хорошо зарекомендовала. Подъезжает и агент полиции (Скалия). Подразделение входит в здание и без особого труда обезвреживает бандитов. Всё это сопровождается зрелищными перестрелками, но уцелевшим бандитам удаётся скрыться с заложниками на вертолёте. Вертолёт киборги подбивают, а все, кто там были, погибают.
Гибель заложников не понравилась полиции. Принято решение о дезактивации подразделения. Однако, у роботов есть инстинкт самосохранения который не позволяет так с ними обращаться. Киборги убивают своих создателей и уходят мстить людям. Роботы убивают местных бандитов на окраине города и обустраивают там свой лагерь. Они начинают стараться всё больше и больше быть похожими на людей.
Команда роботов хорошо вооружается и подрывает полицейский участок, а следующая их цель — мэр города.
Прибывая в лабораторию, агент Джек обнаруживает убитых учёных и одного запуганного робота Адама, который видел как расправляются с создателями и не ушёл с остальной командой.
Джеку с киборгом Адамом поручают задание найти и обезвредить вышедшее из под контроля подразделение, пока оно не натворило больших бед. Джек недолюбливает своего нового напарника, ведь он же машина, но потом между ними возникает дружба.
«Подразделение Т», как и все боевики Ричарда Пепина, имеет в изобилии множество зрелищных взрывов, динамичных погонь, перестрелок, драк и всегда смотрятся на одном дыхании.
Техническая сторона у фильма на уровне. Хороши костюмы киборгов, заброшенная промзона смотрится впечатляюще.
Актёры в творении Пепина талантливые. Джек Скалия, который в те годы часто играл агентов, здесь в своём образе просто хорош. Также понравилась игра Ивэна Лури в роли доброго киборга, помогающего полиции в расследовании.
С «Терминатором» этот фильм немного связывает буква Т, подразумевающая уничтожение.
Фильмы Пепина всегда пользовались успехом. Данная картина блокбастером не была, но даст фору иным раскрученным фильмам. Сейчас подобных картин у Ричарда Пепина больше нет.
10 из 10

MediaInfo

Общее
Уникальный идентификатор : 226614140453696862059967742962421234573 (0xAA7C4BBF9642D1B7B3F44CCF47CC7B8D)
Полное имя : H:\НА ПЕРЕЗАПИСЬ В АРХИВ\T-Force.1994.1080p.BluRay.x264-CREEPSHOW\T-Force 1994.x264.BDRip-1080p.2xRus.kosmoaelita.mkv
Формат : Matroska
Версия формата : Version 4 / Version 2
Размер файла : 9,01 Гбайт
Продолжительность : 1 ч. 41 м.
Общий поток : 12,8 Мбит/сек
Название фильма : T-Force / 1994 / kosmoaelita
Дата кодирования : UTC 2018-11-13 17:50:19
Программа кодирования : mkvmerge v6.6.0 ('The Edge Of The In Between') built on Dec 1 2013 17:55:00
Библиотека кодирования : libebml v1.3.0 + libmatroska v1.4.1
Attachments : POSTER.jpg
Видео
Идентификатор : 1
Формат : AVC
Формат/Информация : Advanced Video Codec
Профиль формата : High@L4.1
Параметр CABAC формата : Да
Параметр ReFrames формата : 4 кадра
Идентификатор кодека : V_MPEG4/ISO/AVC
Продолжительность : 1 ч. 41 м.
Битрейт : 11,9 Мбит/сек
Ширина : 1920 пикселей
Высота : 1080 пикселей
Соотношение сторон : 16:9
Режим частоты кадров : Постоянный
Частота кадров : 23,976 (24000/1001) кадра/сек
Цветовое пространство : YUV
Субдискретизация насыщенности : 4:2:0
Битовая глубина : 8 бит
Тип развёртки : Прогрессивная
Бит/(Пиксели*Кадры) : 0.240
Размер потока : 8,24 Гбайт (91%)
Заголовок : http://kosmoaelita.com/viewtopic.php?t=2596
Библиотека кодирования : x264 core 148 r2597 e86f3a1
Настройки программы : cabac=1 / ref=4 / deblock=1:-2:-2 / analyse=0x3:0x133 / me=umh / subme=9 / psy=1 / psy_rd=1.00:0.00 / mixed_ref=1 / me_range=16 / chroma_me=1 / trellis=1 / 8x8dct=1 / cqm=0 / deadzone=21,11 / fast_pskip=0 / chroma_qp_offset=-2 / threads=6 / lookahead_threads=1 / sliced_threads=0 / nr=0 / decimate=1 / interlaced=0 / bluray_compat=0 / constrained_intra=0 / bframes=3 / b_pyramid=2 / b_adapt=1 / b_bias=0 / direct=1 / weightb=1 / open_gop=0 / weightp=2 / keyint=250 / keyint_min=23 / scenecut=40 / intra_refresh=0 / rc_lookahead=40 / rc=2pass / mbtree=1 / bitrate=11932 / ratetol=1.0 / qcomp=0.60 / qpmin=0 / qpmax=69 / qpstep=4 / cplxblur=20.0 / qblur=0.5 / ip_ratio=1.40 / aq=1:1.00
Default : Да
Forced : Нет
Statistics Tags Issue : mkvmerge v8.3.0 ('Over the Horizon') 64bit 2015-10-14 22:40:50 / mkvmerge v6.6.0 ('The Edge Of The In Between') built on Dec 1 2013 17:55:00 2018-11-13 17:50:19
FromStats_BitRate : 11924741
FromStats_Duration : 01:41:02.974000000
FromStats_FrameCount : 145366
FromStats_StreamSize : 9037424967
Аудио #1
Идентификатор : 2
Формат : AC-3
Формат/Информация : Audio Coding 3
Расширение режима : CM (complete main)
Параметр Endianness формата : Big
Идентификатор кодека : A_AC3
Продолжительность : 1 ч. 41 м.
Вид битрейта : Постоянный
Битрейт : 192 Кбит/сек
Каналы : 2 канала
Расположение каналов : Front: L R
Частота : 48,0 КГц
Частота кадров : 31,250 кадров/сек (1536 spf)
Метод сжатия : С потерями
Размер потока : 139 Мбайт (2%)
Заголовок : Русский ПД (канал ДТВ)
Язык : Russian
Default : Да
Forced : Нет
Аудио #2
Идентификатор : 3
Формат : AC-3
Формат/Информация : Audio Coding 3
Расширение режима : CM (complete main)
Параметр Endianness формата : Big
Идентификатор кодека : A_AC3
Продолжительность : 1 ч. 41 м.
Вид битрейта : Постоянный
Битрейт : 192 Кбит/сек
Каналы : 2 канала
Расположение каналов : Front: L R
Частота : 48,0 КГц
Частота кадров : 31,250 кадров/сек (1536 spf)
Метод сжатия : С потерями
Размер потока : 139 Мбайт (2%)
Заголовок : Русский АО (Л.Володарский) с VHS
Язык : Russian
Default : Нет
Forced : Нет
Аудио #3
Идентификатор : 4
Формат : AC-3
Формат/Информация : Audio Coding 3
Расширение режима : CM (complete main)
Параметр Endianness формата : Big
Идентификатор кодека : A_AC3
Продолжительность : 1 ч. 41 м.
Вид битрейта : Постоянный
Битрейт : 448 Кбит/сек
Каналы : 6 каналов
Расположение каналов : Front: L C R, Side: L R, LFE
Частота : 48,0 КГц
Частота кадров : 31,250 кадров/сек (1536 spf)
Метод сжатия : С потерями
Размер потока : 324 Мбайт (4%)
Язык : English
Default : Нет
Forced : Нет
Statistics Tags Issue : mkvmerge v8.3.0 ('Over the Horizon') 64bit 2015-10-14 22:40:50 / mkvmerge v6.6.0 ('The Edge Of The In Between') built on Dec 1 2013 17:55:00 2018-11-13 17:50:19
FromStats_BitRate : 447932
FromStats_Duration : 01:41:04.192000000
FromStats_FrameCount : 189506
FromStats_StreamSize : 339543552
Меню
00:00:00.000 : en:00:00:00.000
00:00:00.375 : en:00:00:00.375
00:15:04.821 : en:00:15:04.821
00:29:07.412 : en:00:29:07.412
00:45:17.006 : en:00:45:17.006
00:58:21.748 : en:00:58:21.748
01:15:46.292 : en:01:15:46.292
01:27:00.882 : en:01:27:00.882
01:37:46.861 : en:01:37:46.861

Скриншоты
















Скринлист

Файл дополнительно залит на ОБЛАКО


Last edited by on 2018-11-13 21:25; edited 2 times in total
[Profile] [PM]

Guest

Gender: Unknown

Longevity: 50 years

Post 13-Nov-2018 21:22 (after 11 minutes)

[Quote]

Блюр без реставрации.
Картинку сильно обрезале при выпуске на BD
http://screenshotcomparison.com/comparison/124316

[Profile] [PM]
Display posts:    
Reply to topic

Current time is: 06-Dec 01:19

All times are UTC + 3



You cannot post new topics in this forum
You cannot reply to topics in this forum
You cannot edit your posts in this forum
You cannot delete your posts in this forum
You cannot vote in polls in this forum
You cannot attach files in this forum
You cannot download files in this forum