Банка с червяками (ТВ) / Can of Worms (Пол Шнайдер / Paul Schneider) [1999, США, Канада, фантастика, комедия, семейный, WEBRip] ПД (Видеосервис)

Reply to topic
 
Author Message

Guest

Gender: Unknown

Longevity: 50 years

Post 13-Nov-2018 02:35

[Quote]

Банка с червяками (ТВ) / Can of Worms
Страна: США, Канада, Disney Channel, Gross-Weston Productions
Жанр: фантастика, комедия, семейный
Год выпуска: 1999
Продолжительность: 01:24:10
Перевод: Профессиональный (двухголосый) Видеосервис
Режиссер: Пол Шнайдер / Paul Schneider
В ролях:
Michael Shulman ... Mike Pillsbury
Erika Christensen ... Katelyn
Adam Wylie ... Nick
Andrew Ducote ... Jay
Lee Garlington ... Dana Pillsbury
Brighton Hertford ... Jill Pillsbury
Marcus Turner ... Scott
Malcolm McDowell ... Barnabus (voice)
Chris Davies ... Ryan
Marie Stillin ... Mrs. Nickerson
Jessica Murdoch ... Katelyn's Friend
Terry David Mulligan ... Coach Trembly
Brian Steele ... Thoad
Hrothgar Mathews ... Thoad Man (as Hrothgar Matthews)
J.D. Hall ... Thoad (voice) (as JD Hall)
Описание: С космосом шутки плохи! Майкл Пиллсбери при помощи обычной спутниковой антенны посылает в космос ироничное сообщение братьям по разуму. Герой, дела которогона родной планете не ладились, неосмотрительно попросил инопланетян забрать его с Земли. Не подозревая, что его просьба будет услышана — и принята решительно всерьез!
Так что, когда на голову Майку с небес сваливается космический корабль, парень не раз раскается в своем опрометчивом поступке. А дела меж тем поворачиваются таким образом, что герою уже приходится позаботиться не только о себе, но и о спасении всей Земли!

Качество видео: WEBRip
Формат: MKV
Видео: x264, 1936 кбит/с, 640x480, 23.976 к/с
Аудио 1: Русский (AC3, 2 ch, 192 Кбит/с)
Аудио 2: Английский (AC3, 2 ch, 192 Кбит/с)
Работа над релизом:
Видеоряд найден в Usenet
Синхр. русской дорожки - kosmoaelita



Пример русского перевода

Дополнительно

слоган «Who's Got Time to Be a Teenager When You Have to Save the World?»
Also Known As (AKA)
Brazil A Caixa de Pandora
Germany Mikes galaktisches Abenteuer
Spain La puerta de las galaxias
France Embrouille dans la Galaxie
Greece (transliterated ISO-LATIN-1 title) Erhontai oi Areianoi
Italy Mamma, io vengo da un altro pianeta
Portugal Amiguinhos do Outro Mundo

Отзывы

Искренне и от всей души СПАСИБО! Я любил этот фильм в детстве, а кассету мама давнооо выкинула. Ах. вернул в детство.

MediaInfo

Общее
Уникальный идентификатор : 176800178664679125174505504621708193604 (0x850279CFC12603659D0F60E032542F44)
Полное имя : N:\BD-DISC\Can.of.Worms.1999.WEBRiP.x264-QCF\Can of Worms 1999.x264.WEBRip.Rus.kosmoaelita.mkv
Формат : Matroska
Версия формата : Version 4 / Version 2
Размер файла : 1,36 Гбайт
Продолжительность : 1 ч. 24 м.
Общий поток : 2322 Кбит/сек
Название фильма : Can of Worms | 1999 / kosmoaelita
Дата кодирования : UTC 2018-11-12 23:02:33
Программа кодирования : mkvmerge v6.6.0 ('The Edge Of The In Between') built on Dec 1 2013 17:55:00
Библиотека кодирования : libebml v1.3.0 + libmatroska v1.4.1
Attachments : poster.jpg
Видео
Идентификатор : 1
Формат : AVC
Формат/Информация : Advanced Video Codec
Профиль формата : High@L4.1
Параметр CABAC формата : Да
Параметр ReFrames формата : 8 кадров
Идентификатор кодека : V_MPEG4/ISO/AVC
Продолжительность : 1 ч. 24 м.
Битрейт : 1936 Кбит/сек
Ширина : 640 пикселей
Высота : 480 пикселей
Соотношение сторон : 4:3
Режим частоты кадров : Постоянный
Частота кадров : 23,976 (24000/1001) кадра/сек
Частота кадров в оригинале : 23,976 (23976/1000) кадра/сек
Цветовое пространство : YUV
Субдискретизация насыщенности : 4:2:0
Битовая глубина : 8 бит
Тип развёртки : Прогрессивная
Бит/(Пиксели*Кадры) : 0.263
Размер потока : 1,11 Гбайт (81%)
Заголовок : http://kosmoaelita.com/viewtopic.php?t=2594
Библиотека кодирования : x264 core 130 r2273 b3065e6
Настройки программы : cabac=1 / ref=8 / deblock=1:-1:-1 / analyse=0x3:0x133 / me=umh / subme=10 / psy=1 / psy_rd=0.99:0.14 / mixed_ref=1 / me_range=24 / chroma_me=1 / trellis=2 / 8x8dct=1 / cqm=0 / deadzone=21,11 / fast_pskip=1 / chroma_qp_offset=-3 / threads=6 / lookahead_threads=1 / sliced_threads=0 / nr=0 / decimate=1 / interlaced=0 / bluray_compat=0 / constrained_intra=0 / bframes=8 / b_pyramid=2 / b_adapt=2 / b_bias=0 / direct=3 / weightb=1 / open_gop=0 / weightp=2 / keyint=210 / keyint_min=21 / scenecut=40 / intra_refresh=0 / rc_lookahead=80 / rc=2pass / mbtree=1 / bitrate=1936 / ratetol=1.0 / qcomp=0.65 / qpmin=0 / qpmax=69 / qpstep=4 / cplxblur=20.0 / qblur=0.5 / ip_ratio=1.25 / aq=1:0.90
Default : Да
Forced : Нет
Аудио #1
Идентификатор : 2
Формат : AC-3
Формат/Информация : Audio Coding 3
Расширение режима : CM (complete main)
Параметр Endianness формата : Big
Идентификатор кодека : A_AC3
Продолжительность : 1 ч. 24 м.
Вид битрейта : Постоянный
Битрейт : 192 Кбит/сек
Каналы : 2 канала
Расположение каналов : Front: L R
Частота : 48,0 КГц
Частота кадров : 31,250 кадров/сек (1536 spf)
Метод сжатия : С потерями
Размер потока : 116 Мбайт (8%)
Заголовок : Русский ПД (Видеосервис) с VHS
Язык : Russian
Default : Да
Forced : Нет
Аудио #2
Идентификатор : 3
Формат : AC-3
Формат/Информация : Audio Coding 3
Расширение режима : CM (complete main)
Параметр Endianness формата : Big
Идентификатор кодека : A_AC3
Продолжительность : 1 ч. 24 м.
Вид битрейта : Постоянный
Битрейт : 192 Кбит/сек
Каналы : 2 канала
Расположение каналов : Front: L R
Частота : 48,0 КГц
Частота кадров : 31,250 кадров/сек (1536 spf)
Метод сжатия : С потерями
Размер потока : 116 Мбайт (8%)
Язык : English
Default : Нет
Forced : Нет

Скриншоты






















Скринлист

Файл дополнительно залит на ОБЛАКО


Last edited by on 2018-11-13 20:34; edited 2 times in total
[Profile] [PM]

Трамвай-фильм

Gender: Male

Longevity: 6 years 1 month

Posts: 1863

Location: Россия

Post 13-Nov-2018 18:36 (after 16 hours)

[Quote]

о! подростковая фантастика 80-х, вспомним детство, как нибудь. Спасибки
[Profile] [PM]
Display posts:    
Reply to topic

Current time is: 28-Sep 05:49

All times are UTC + 3



You cannot post new topics in this forum
You cannot reply to topics in this forum
You cannot edit your posts in this forum
You cannot delete your posts in this forum
You cannot vote in polls in this forum
You cannot attach files in this forum
You cannot download files in this forum