Инопланетная экспедиция / Alien Expedition (Wallace Brothers / Wallace Brothers) [2018, США, фантастика, BDRip-1080p] ПМ (Синема УС)

Reply to topic
DL-List and Torrent activity
Size:  3.36 GB   |    Registered:  10 months 23 days   |    Completed:  3 times

Seeder not seen: 2 months 18 days

 
   
 
 
 
Author Message

kosmoaelita2 ®

Gender: Male

Longevity: 6 years 11 months

Posts: 743

Post 26-Oct-2018 03:26

[Quote]

Инопланетная экспедиция / Alien Expedition
Страна: США
Жанр: фантастика
Год выпуска: 2018
Продолжительность: 01:34:24
Перевод: Профессиональный (многоголосый) Синема УС
Режиссер: Wallace Brothers / Wallace Brothers
В ролях: C.J. Baker ... Fen
Edward Gusts ... Mason
Ethan McDowell ... Sato
Gregory Niebel ... Commander
Whitney Nielsen ... Aurora
Antuone Torbert ... Boka
Linda S. Wong ... Rondeau
Motown Maurice ... Space Soldier
Описание: Космический исследовательский корабль, на борту которого находятся и люди, и андроиды, натыкается на планету, пригодную для жизни. Задача команды — исследовать потенциал новой планеты. Но отправленная на разведку экспедиция вскоре вынуждена вступить в сражение с негостеприимной фауной не на жизнь, а на смерть.

Качество видео: BDRip-1080p
Формат: MKV
Видео: x264, 8429 кбит/с, 1920x816, 23.976 к/с,
Аудио 1: Русский ПМ (AC3, 2 ch, 224 Кбит/с)
Аудио 2: Английский (DTS, 6 ch, 1510 Кбит/с)
Работа над релизом:
Видеоряд найден на rarbg2018.org
Синхронизация русской дорожки и чистка от рекламных вставок - kosmoaelita



Пример русского перевода

Дополнительно

Отзывы

Кто собрал этих людей вместе? Актёры пришли сняться в порнушке, а пришлось в "фантастике". Результат ожидаем ab
----------------------------
Для ностальгирующих по 90м самое то. Тогда бы на ура зашел.
------------------------------
Похож на дипломный фильм, простой такой. 2/10
-----------------------------
А лично мне что-то фильм понравился, офигенный техно музон под старые закосы, что давненько не слышал, красивые пейзажи,сюжета нет, но сюрр весьма не плохой, снято в стиле 90-ых - любители атмосферы оценят. Еще озвучка хорошая, все новые голоса по теме зашли. И деваха-биоробот выглядит шикарно!)
----------------------------------
Низкобюджетное киношко категории В для подросткового кабельного канала. Если, конечно, вырезать сцену животного совокупления персонажей в самом начале.

MediaInfo

Общее
Уникальный идентификатор : 195051027333993828289695484963458989562 (0x92BD761FCAAE5C02BB774189BFFD3DFA)
Полное имя : N:\BD-DISC\Alien.Expedition.Voyage.Into.Fear.2018.1080p.BluRay.x264-WiSDOM[rarbg]\Alien Expedition 2018.x264.BDRip.1080p.Rus.kosmoaelita.mkv
Формат : Matroska
Версия формата : Version 4 / Version 2
Размер файла : 6,70 Гбайт
Продолжительность : 1 ч. 34 м.
Общий поток : 10,2 Мбит/сек
Название фильма : Alien Expedition / 2018 / kosmoaelita
Дата кодирования : UTC 2019-01-26 18:07:17
Программа кодирования : mkvmerge v6.6.0 ('The Edge Of The In Between') built on Dec 1 2013 17:55:00
Библиотека кодирования : libebml v1.3.0 + libmatroska v1.4.1
Attachments : poster.jpg
Видео
Идентификатор : 1
Формат : AVC
Формат/Информация : Advanced Video Codec
Профиль формата : High@L4.1
Параметр CABAC формата : Да
Параметр ReFrames формата : 5 кадров
Идентификатор кодека : V_MPEG4/ISO/AVC
Продолжительность : 1 ч. 34 м.
Битрейт : 8429 Кбит/сек
Ширина : 1920 пикселей
Высота : 816 пикселей
Соотношение сторон : 2,35:1
Режим частоты кадров : Постоянный
Частота кадров : 23,976 (24000/1001) кадра/сек
Цветовое пространство : YUV
Субдискретизация насыщенности : 4:2:0
Битовая глубина : 8 бит
Тип развёртки : Прогрессивная
Бит/(Пиксели*Кадры) : 0.224
Размер потока : 5,42 Гбайт (81%)
Заголовок : http://kosmoaelita.com/viewtopic.php?t=2583
Библиотека кодирования : x264 core 157 r2935 545de2f
Настройки программы : cabac=1 / ref=5 / deblock=1:0:0 / analyse=0x3:0x113 / me=umh / subme=8 / psy=1 / psy_rd=1.00:0.00 / mixed_ref=1 / me_range=16 / chroma_me=1 / trellis=2 / 8x8dct=1 / cqm=0 / deadzone=21,11 / fast_pskip=0 / chroma_qp_offset=-2 / threads=12 / lookahead_threads=2 / sliced_threads=0 / nr=0 / decimate=1 / interlaced=0 / bluray_compat=0 / constrained_intra=0 / bframes=3 / b_pyramid=2 / b_adapt=1 / b_bias=0 / direct=1 / weightb=1 / open_gop=0 / weightp=2 / keyint=250 / keyint_min=23 / scenecut=40 / intra_refresh=0 / rc_lookahead=50 / rc=2pass / mbtree=1 / bitrate=8429 / ratetol=1.0 / qcomp=0.60 / qpmin=0 / qpmax=69 / qpstep=4 / cplxblur=20.0 / qblur=0.5 / ip_ratio=1.40 / aq=1:1.00
Default : Да
Forced : Нет
Statistics Tags Issue : mkvmerge v9.0.1 ('Obstacles') 64bit 2019-01-26 04:52:25 / mkvmerge v6.6.0 ('The Edge Of The In Between') built on Dec 1 2013 17:55:00 2019-01-26 18:07:17
FromStats_BitRate : 8423618
FromStats_Duration : 01:34:23.950000000
FromStats_FrameCount : 135799
FromStats_StreamSize : 5963869398
Аудио #1
Идентификатор : 2
Формат : AC-3
Формат/Информация : Audio Coding 3
Расширение режима : CM (complete main)
Параметр Endianness формата : Big
Идентификатор кодека : A_AC3
Продолжительность : 1 ч. 34 м.
Вид битрейта : Постоянный
Битрейт : 224 Кбит/сек
Каналы : 2 канала
Расположение каналов : Front: L R
Частота : 48,0 КГц
Частота кадров : 31,250 кадров/сек (1536 spf)
Метод сжатия : С потерями
Размер потока : 151 Мбайт (2%)
Заголовок : Русский ПМ (Синема УС)
Язык : Russian
Default : Да
Forced : Нет
Аудио #2
Идентификатор : 3
Формат : DTS
Формат/Информация : Digital Theater Systems
Режим : 16
Параметр Endianness формата : Big
Идентификатор кодека : A_DTS
Продолжительность : 1 ч. 34 м.
Вид битрейта : Постоянный
Битрейт : 1509 Кбит/сек
Каналы : 6 каналов
Расположение каналов : Front: L C R, Side: L R, LFE
Частота : 48,0 КГц
Частота кадров : 93,750 кадра/сек (512 spf)
Битовая глубина : 24 бит
Метод сжатия : С потерями
Размер потока : 1019 Мбайт (15%)
Язык : English
Default : Нет
Forced : Нет
Statistics Tags Issue : mkvmerge v9.0.1 ('Obstacles') 64bit 2019-01-26 04:52:25 / mkvmerge v6.6.0 ('The Edge Of The In Between') built on Dec 1 2013 17:55:00 2019-01-26 18:07:17
FromStats_BitRate : 1508999
FromStats_Duration : 01:34:23.958000000
FromStats_FrameCount : 530996
FromStats_StreamSize : 1068363952
Текст
Идентификатор : 4
Формат : UTF-8
Идентификатор кодека : S_TEXT/UTF8
Идентификатор кодека/Информация : UTF-8 Plain Text
Заголовок : Рекламка
Default : Да
Forced : Нет
Меню
00:00:00.000 : en:00:00:00.000
00:08:23.545 : en:00:08:23.545
00:15:30.930 : en:00:15:30.930
00:25:15.639 : en:00:25:15.639
00:34:52.090 : en:00:34:52.090
00:43:17.970 : en:00:43:17.970
00:50:30.027 : en:00:50:30.027
01:00:36.675 : en:01:00:36.675
01:10:14.585 : en:01:10:14.585
01:18:05.139 : en:01:18:05.139
01:23:50.734 : en:01:23:50.734
01:30:09.195 : en:01:30:09.195

Скриншоты






























Скринлист

Файл дополнительно залит на ОБЛАКО
Alien Expedition 2018.x264.WEB-DL.1080p.Rus.kosmoaelita.mkv.torrent
Torrent: Registered [ 2018-10-26 03:29 ]

Download .torrent

Download

9 KB

Status: checked
Completed: 3 times
Size: 3.36 GB
 


Last edited by kosmoaelita2 on 2019-01-26 21:18; edited 7 times in total
[Profile] [PM]

kosmoaelita2 ®

Gender: Male

Longevity: 6 years 11 months

Posts: 743

Post 26-Oct-2018 03:26 (after 35 seconds)

[Quote]

Без рекламы и вставок
[Profile] [PM]

Трамвай-фильм

Gender: Male

Longevity: 5 years 1 month

Posts: 1533

Location: Россия

Post 26-Oct-2018 15:10 (after 11 hours)

[Quote]

Хм, выдержано в силе трешачка 90-х
[Profile] [PM]
Quick Reply

Name:

            
Heads necessary to send messages to enable JavaScript
Display posts:    
Reply to topic

Current time is: 19-Sep 01:36

All times are UTC + 3



You cannot post new topics in this forum
You can reply to topics in this forum
You cannot edit your posts in this forum
You cannot delete your posts in this forum
You cannot vote in polls in this forum
You cannot attach files in this forum
You can download files in this forum