Шлок / Банановый монстр / Schlock / The Banana Monster (Джон Лэндис) [1973, США, Фантастика, трэш, чёрная комедия, BDRip-1080p] АО (Трамвай-фильм)

Reply to topic
DL-List and Torrent activity
Size:  5.57 GB   |    Registered:  1 year 11 months   |    Completed:  1 time

Seeder not seen: 11 months 24 days

 
   
 
 
 
Author Message

Guest

Gender: Unknown

Longevity: 50 years

Post 24-Oct-2018 00:29

[Quote]

Шлок / Банановый монстр / Schlock / The Banana Monster
Страна: США, Gazotskie Productions
Жанр: Фантастика, трэш, чёрная комедия
Год выпуска: 1973
Продолжительность: 01:19:05
Перевод: Авторский (одноголосый) Трамвай-фильм
Режиссер: Джон Лэндис / John Landis
В ролях:
John Landis ... Schlock
Saul Kahan ... Detective Sgt. Wino
Joseph Piantadosi ... Ivan
Richard Gillis ... Officer Gillis
Tom Alvich ... Torn Cop
Walter Levine ... Police Thief
Eric Allison ... Joe Putzman
Ralph Baker ... Dying Man
Gene Fox ... Billy
Susan Weiser-Finley ... Betty (as Susan Weiser)
Jonathan Flint ... Bobby (as Jonathan A. Flint)
Amy Schireson ... Barbara
Belinda Folsey ... Goria
Emile Hamaty ... Professor Shlibovitz (as E.G. Harty)
Harriet Medin ... Mrs. Blinerman (as Enrica Blankey)
Описание: #1 Пародийно-гротескный фильм о том как допотопный гоминид терроризирует небольшой городок в американской глуши, после спячки в 20 млн. лет.
#2 Монстрообразная обезьяна влюбляется в слепую девушку, которая думает, что это-огромная собака. Не найдя взаимности, обезьяна похищает девушку и взбирается на крышу школы. На спасение несчастной снаряжается целая армия.
Доп. информация: Фильм переполнен различными "подколами" над американской субкультурой, так же в нем впервые упоминается выдуманный фильм "Увидимся в следующую среду", который режиссер Джо Лэндис "вставлял" в свои последующие работы.

Качество видео: BDRip-1080p
Формат: MKV
Видео: x264, 9251 кбит/с, 1920x1040, 23.976 к/с
Аудио 1: Русский АО (Трамвай-фильм) (AC3, 2 ch, 192 Кбит/с)
Аудио 2: Английский (AC3, 1 ch, 640 Кбит/с)
Субтитры : Английские
Работа над релизом:
Видеоряд найден на rarbg2018.org
Синхронизация русской дорожки - kosmoaelita



Пример русского перевода

Дополнительно

Also Known As (AKA)
The Banana Monster
Spain El monstruo de las bananas
Finland Schlock - banaanihirviö
France Schlock
France Schlock, le tueur à la banane...!
Italy Slok
Sweden Schlock jätteapan
USA (working title) The Banana Monster
West Germany Schlock - Das Bananenmonster
слоган «Man's Missing Link Has Just Moved Into The Neighborhood. But Is Suburbia Ready For Schlock?»
бюджет $60 000
Формат изображения: 1.85 : 1
Камера: Arriflex 35 IIA
Формат копии: 35 mm
Формат съёмок: 35 mm
Изображение: цветное
Язык: английский

Знаете ли вы, что...

Фильм переполнен различными "подколами" над американской субкультурой, так же в нем впервые упоминается выдуманный фильм "Увидимся в следующую среду", который режиссер Джо Лэндис "вставлял" в свои последующие работы.

Лог кодирования

MediaInfo

Общее
Уникальный идентификатор : 175525607051530133888513817763419783595 (0x840D00944A4ABAE38989D77B29EC01AB)
Полное имя : N:\BD-DISC\Schlock.1973.1080p.BluRay.x264-SPOOKS[rarbg]\Новая папка\Schlock 1973.x264.BDRip.1080p.Rus.kosmoaelita.mkv
Формат : Matroska
Версия формата : Version 4 / Version 2
Размер файла : 5,57 Гбайт
Продолжительность : 1 ч. 19 м.
Общий поток : 10,1 Мбит/сек
Название фильма : Schlock / 1973 / kosmoaelita
Дата кодирования : UTC 2018-10-23 21:10:45
Программа кодирования : mkvmerge v6.6.0 ('The Edge Of The In Between') built on Dec 1 2013 17:55:00
Библиотека кодирования : libebml v1.3.0 + libmatroska v1.4.1
Attachments : POSTER.jpg
Видео
Идентификатор : 1
Формат : AVC
Формат/Информация : Advanced Video Codec
Профиль формата : High@L4.1
Параметр CABAC формата : Да
Параметр ReFrames формата : 4 кадра
Идентификатор кодека : V_MPEG4/ISO/AVC
Продолжительность : 1 ч. 19 м.
Битрейт : 9251 Кбит/сек
Ширина : 1920 пикселей
Высота : 1040 пикселей
Соотношение сторон : 1,85:1
Режим частоты кадров : Постоянный
Частота кадров : 23,976 (24000/1001) кадра/сек
Цветовое пространство : YUV
Субдискретизация насыщенности : 4:2:0
Битовая глубина : 8 бит
Тип развёртки : Прогрессивная
Бит/(Пиксели*Кадры) : 0.193
Размер потока : 5,00 Гбайт (90%)
Заголовок : http://kosmoaelita.com/viewtopic.php?t=2581
Библиотека кодирования : x264 core 157 r2932 303c484
Настройки программы : cabac=1 / ref=4 / deblock=1:-3:-3 / analyse=0x3:0x133 / me=umh / subme=9 / psy=1 / psy_rd=1.00:0.00 / mixed_ref=1 / me_range=24 / chroma_me=1 / trellis=1 / 8x8dct=1 / cqm=0 / deadzone=21,11 / fast_pskip=0 / chroma_qp_offset=-2 / threads=24 / lookahead_threads=4 / sliced_threads=0 / nr=0 / decimate=1 / interlaced=0 / bluray_compat=0 / constrained_intra=0 / bframes=8 / b_pyramid=2 / b_adapt=2 / b_bias=0 / direct=3 / weightb=1 / open_gop=0 / weightp=2 / keyint=250 / keyint_min=23 / scenecut=40 / intra_refresh=0 / rc_lookahead=60 / rc=2pass / mbtree=1 / bitrate=9251 / ratetol=1.0 / qcomp=0.60 / qpmin=0 / qpmax=69 / qpstep=4 / cplxblur=20.0 / qblur=0.5 / vbv_maxrate=62500 / vbv_bufsize=78125 / nal_hrd=none / filler=0 / ip_ratio=1.40 / aq=1:1.00
Default : Да
Forced : Нет
Statistics Tags Issue : mkvmerge v27.0.0 ('Metropolis') 64-bit 2018-10-22 10:33:26 / mkvmerge v6.6.0 ('The Edge Of The In Between') built on Dec 1 2013 17:55:00 2018-10-23 21:10:45
FromStats_BitRate : 9249428
FromStats_Duration : 01:19:04.740000000
FromStats_FrameCount : 113760
FromStats_StreamSize : 5485766453
Аудио #1
Идентификатор : 2
Формат : AC-3
Формат/Информация : Audio Coding 3
Расширение режима : CM (complete main)
Параметр Endianness формата : Big
Идентификатор кодека : A_AC3
Продолжительность : 1 ч. 19 м.
Вид битрейта : Постоянный
Битрейт : 192 Кбит/сек
Каналы : 2 канала
Расположение каналов : Front: L R
Частота : 48,0 КГц
Частота кадров : 31,250 кадров/сек (1536 spf)
Метод сжатия : С потерями
Размер потока : 109 Мбайт (2%)
Заголовок : Русский АО (Трамвай-фильм)
Язык : Russian
Default : Да
Forced : Нет
Аудио #2
Идентификатор : 3
Формат : AC-3
Формат/Информация : Audio Coding 3
Расширение режима : CM (complete main)
Параметр Endianness формата : Big
Идентификатор кодека : A_AC3
Продолжительность : 1 ч. 19 м.
Вид битрейта : Постоянный
Битрейт : 640 Кбит/сек
Каналы : 1 канал
Расположение каналов : Front: C
Частота : 48,0 КГц
Частота кадров : 31,250 кадров/сек (1536 spf)
Метод сжатия : С потерями
Размер потока : 362 Мбайт (6%)
Язык : English
Default : Нет
Forced : Нет
Statistics Tags Issue : mkvmerge v27.0.0 ('Metropolis') 64-bit 2018-10-22 10:33:26 / mkvmerge v6.6.0 ('The Edge Of The In Between') built on Dec 1 2013 17:55:00 2018-10-23 21:10:45
FromStats_BitRate : 640000
FromStats_Duration : 01:19:03.776000000
FromStats_FrameCount : 148243
FromStats_StreamSize : 379502080
Текст #1
Идентификатор : 4
Формат : UTF-8
Идентификатор кодека : S_TEXT/UTF8
Идентификатор кодека/Информация : UTF-8 Plain Text
Заголовок : SDH
Язык : English
Default : Да
Forced : Нет
Текст #2
Идентификатор : 5
Формат : VobSub
Режим смешивания : zlib
Идентификатор кодека : S_VOBSUB
Идентификатор кодека/Информация : Picture based subtitle format used on DVDs
Язык : English
Default : Нет
Forced : Нет
Меню
00:00:00.000 : en:00:00:00.000
00:08:35.140 : en:00:08:35.140
00:13:53.708 : en:00:13:53.708
00:17:05.274 : en:00:17:05.274
00:26:18.452 : en:00:26:18.452
00:31:10.577 : en:00:31:10.577
00:37:16.067 : en:00:37:16.067
00:46:06.555 : en:00:46:06.555
00:50:38.202 : en:00:50:38.202
00:59:23.518 : en:00:59:23.518
01:06:03.793 : en:01:06:03.793
01:11:48.763 : en:01:11:48.763

Скриншоты










Скринлист

Файл дополнительно залит на ОБЛАКО
Schlock 1973.x264.BDRip.1080p.Rus.kosmoaelita.mkv.torrent
Torrent: Registered [ 2018-10-24 00:29 ]

Download .torrent

Download

14 KB

Status: checked
Completed: 1 times
Size: 5.57 GB
 


Last edited by on 2018-10-24 00:49; edited 4 times in total
[Profile] [PM]

Guest

Gender: Unknown

Longevity: 50 years

Post 24-Oct-2018 00:40 (after 10 minutes)

[Quote]

DVDRip vs. BDRip

[Profile] [PM]

Трамвай-фильм

Gender: Male

Longevity: 6 years 1 month

Posts: 1864

Location: Россия

Post 24-Oct-2018 14:39 (after 13 hours)

[Quote]

Да, блюрик получше смотрится
[Profile] [PM]
Display posts:    
Reply to topic

Current time is: 01-Oct 21:01

All times are UTC + 3



You cannot post new topics in this forum
You cannot reply to topics in this forum
You cannot edit your posts in this forum
You cannot delete your posts in this forum
You cannot vote in polls in this forum
You cannot attach files in this forum
You can download files in this forum