Порочные губы / Планета кайфа / Vicious Lips / Pleasure Planet (Альберт Пьюн / Albert Pyun) [1986, США, музыкальный, фантастика, ужасы, BDRip-1080p] ПД (HTB+), ЛО (), СТ ()

Reply to topic
DL-List and Torrent activity
Size:  3.67 GB   |    Registered:  2 years   |    Completed:  2 times

Seeder not seen: 1 year 11 months

 
   
 
 
 
Author Message

AlexNT60 ®

Gender: Male

Longevity: 7 years 8 months

Posts: 137

Location: СПб

Post 23-Oct-2018 16:55

[Quote]

Порочные губы / Планета кайфа / Vicious Lips / Pleasure Planet
Страна: США, Empire Pictures, ITM Productions
Жанр: музыкальный, фантастика, ужасы
Год выпуска: 1986
Продолжительность: 01:20:59
Перевод 1: Профессиональный (двухголосый) HTB+
Перевод 2: Любительский (одноголосый)
Cубтитры: русские / английские
Режиссер: Альберт Пьюн / Albert Pyun
В ролях: Дрю-Энн Перри, Джина Калабрезе, Линда Керридж, Шэйн Фаррис, Тони Кентс, Крис Эндрюс, Мэри Энн Грэйвз, Джефф Скотт Яско, Эрик Бартш, Брайан Магвайр
Описание: У Максин Мортого, владелицы крупного развлекательного заведения "Radioactive Dreams", проблемы - не приехала группа, которая должна была выступать. Срочно нужна замена. Она обращается к менеджеру женской группы "Порочные губы" (играющей примерно такой же ньювэйв, что и в "Радиоактивных грезах"). А группа только что лишилась вокалистки. Менеджера охватывает легкая паника, он спешно находит новую вокалистку, ворует космический корабль и они летят на другую планету, не зная, что в грузовом отсеке в титановой клетке сидит опасный маньяк, убивший 5000 женщин. В результате столкновения с метеоритом корабль терпит катастрофу на какой-то пустынной планете, и теперь героям нужно думать и о спасении собственных жизней, и о том, как вовремя успеть на концерт.

Качество видео: BDRip-1080p
Формат видео: MKV
Видео: x264, 8148 кбит/с, 1920x1040, 23.976 к/с
Аудио 1: Русский DVO (HTB+) (AC3, 2 ch, 192 Кбит/с)
Аудио 2: Русский ЛО (AC3, 2 ch, 192 Кбит/с)
Аудио 3: Английский (DTS, 2 ch, 1509 Кбит/с)
Формат субтитров: softsub (SRT) / hardsub (SUP)
Работа над релизом:




Пример русского перевода от НТВ+

Дополнительно

Also Known As (AKA)
(original title) Vicious Lips
Australia (video title) Lunar Madness
Bulgaria (Bulgarian title) Порочни устни
Brazil O Planeta dos Prazeres
Spain El planeta del placer
Spain (alternative title) La banda estelar
France Pleasure Planet
Japan (video title) (English title) Pleasure Planet
Soviet Union (Russian title) Порочные губы
USA (alternative title) Pleasure Planet
USA (working title) Red Moon
West Germany Planet des Grauens
слоган «They're Lost and Loose in Outer Space»
Формат изображения: 1.85 : 1
Изображение: цветное
Язык: английский

Отзывы

Рецензия

Фантастическая Дискотека 80х в стиле треш!
Будущее. В одном из самых знаменитых клубов галактики «Радиоактивный Сон» образовалось пустое время в программе. Владелица клуба Максин предлагает группе «Порочные Губы» с далекой планетки Земля стать звездами шоу. Это шанс, который выпадает только раз!
Однако у группы есть маленькая проблемка — их вокалиста погибла во время несчастного случая, через мгновение после того как решила оставить группу. У Метти, продюсера группы, есть час, чтобы найти солистку и день, чтобы долететь до клуба…
Режиссер Альберт Пьюн смог сотворить замечательный сплав фантастики и мюзикла.
С одной стороны вы увидите все, что олицетворяло музыку 80х: длинные волосы, яркий макияж и выступления в лучах неона.
С другой стороны фантастика с заключенным под стражу человекозверем с Венеры, жрицами любви из корпорации «Планета Наслаждений» и космическими пиратами.
Для настоящих гурманов кинофантастики есть цитаты и намеки на такие кинохиты, как «Чужой» и «Затерянные в космосе» и замечательное чувство юмора.
Фильм снят буквально за гроши, но трешевость не портит фильм, а лишь вносит своеобразный шарм в эту музыкальную историю.
9 из 10
P.S. Человекозверя с Венеры создал сам Грег Канном (Greg Cannom) — обладатель 3-х Оскаров за грим (Дракула 1992, Миссис Даутфайр 1993, Загадочная история Бенджамина Баттона, 2008) и многих номинаций (Титаник 1997, Двухсотлетний человек 1999, Игры разума 2001)
================================
Пост-панк таким я тебя и представлял
Этот фильм пропитан пост-панк эстетикой, наряды, музыка, декорации. Словно попал на какой-то концерт или смотришь фильм о любимой рок-группе.
Странно каким образом вплетаются сюда ужасы, их попросту нет для современного зрителя, а может быть их тут никогда и не было. Фильм весьма атмосферный и если пошло начало, то досмотреть можно и до конца, очень бы хотелось найти с субтитрами, ибо по всей видимости в текстах песен тоже заложен какой-то смысл.
Здесь нет плохих и хороших, здесь есть просто люди и у каждого свои тараканы. С таким же успехом или при другой стилистике можно было бы пригласить панк группу тех времен и снять фильм про них. Весьма собирательный образ про группы 80-х.
Как итог к фильму, пожалуй, прощу ему некоторую сумбурность в повествовании ибо тут есть рок, я люблю рок… в этом фильме много глема, много рока, и девушки и поэтому
9 из 10
p.s. пошёл искать саундтрек)
============================
Видимо нужно быть горячим поклонником кино 80-х или любителем девичьего панка тех лет, что бы Вас заинтересовал это фильм. И это яркий пример ширины спектра киноискусства. Просто поразительно, что в то же время, как почти ровесник Пьюна — Земекис снимал свои бессмертные «Назад в будущее», означенный Пьюн создает сей бредовый фильм.
Сюжет — клубное закулисье в убогих фантастических декорациях. Музыка — на любителя. Что порадовало — финальное объяснение всего происходящего на экране, ибо иначе этот бред объяснить было бы невозможно.
Если пропустите сие творение — ничего не потеряете. Смотреть этот фильм стоит только если хотите погрузиться в атмосферу ярких и наивных 80-х годов прошлого века. Это может получиться, если Вы любите их так же как и я.
3 из 10

MediaInfo

Общее
Уникальный идентификатор : 236346425664093241137360109679267059441 (0xB1CEAA74B8D74493AB3573B90F0896F1)
Полное имя : N:\BD-DISC\Vicious.Lips.1986.1080p.BluRay.x264-LATENCY[rarbg]\Vicious Lips 1986.x264.BDRip.1080p.2xRus.kosmoaelita.mkv
Формат : Matroska
Версия формата : Version 4
Размер файла : 5,68 Гбайт
Продолжительность : 1 ч. 20 м.
Общий поток : 10,0 Мбит/сек
Название фильма : Порочные губы / Планета кайфа / Vicious Lips / Pleasure Planet / 1986 / kosmoaelita
Дата кодирования : UTC 2020-01-10 23:03:14
Программа кодирования : mkvmerge v6.6.0 ('The Edge Of The In Between') built on Dec 1 2013 17:55:00
Библиотека кодирования : libebml v1.3.0 + libmatroska v1.4.1
Обложка : Yes
Attachments : Cover.png
Видео
Идентификатор : 1
Формат : AVC
Формат/Информация : Advanced Video Codec
Профиль формата : High@L4.1
Настройки формата : CABAC / 4 Ref Frames
Параметр CABAC формата : Да
Параметр RefFrames формата : 4 кадра
Идентификатор кодека : V_MPEG4/ISO/AVC
Продолжительность : 1 ч. 20 м.
Битрейт : 8148 Кбит/сек
Ширина : 1920 пикселей
Высота : 1040 пикселей
Соотношение сторон : 1,85:1
Режим частоты кадров : Постоянный
Частота кадров : 23,976 (24000/1001) кадра/сек
Цветовое пространство : YUV
Субдискретизация насыщенности : 4:2:0
Битовая глубина : 8 бит
Тип развёртки : Прогрессивная
Бит/(Пиксели*Кадры) : 0.170
Размер потока : 4,50 Гбайт (79%)
Заголовок : http://kosmoaelita.com/viewtopic.php?t=2578
Библиотека кодирования : x264 core 157 r2969 d4099dd
Настройки программы : cabac=1 / ref=4 / deblock=1:0:0 / analyse=0x3:0x113 / me=umh / subme=8 / psy=1 / psy_rd=1.00:0.00 / mixed_ref=1 / me_range=16 / chroma_me=1 / trellis=2 / 8x8dct=1 / cqm=0 / deadzone=21,11 / fast_pskip=0 / chroma_qp_offset=-2 / threads=32 / lookahead_threads=5 / sliced_threads=0 / nr=0 / decimate=1 / interlaced=0 / bluray_compat=0 / constrained_intra=0 / bframes=3 / b_pyramid=2 / b_adapt=1 / b_bias=0 / direct=3 / weightb=1 / open_gop=0 / weightp=2 / keyint=250 / keyint_min=23 / scenecut=40 / intra_refresh=0 / rc_lookahead=50 / rc=2pass / mbtree=1 / bitrate=8148 / ratetol=1.0 / qcomp=0.60 / qpmin=0 / qpmax=69 / qpstep=4 / cplxblur=20.0 / qblur=0.5 / ip_ratio=1.40 / aq=1:1.00
Default : Да
Forced : Нет
Аудио #1
Идентификатор : 2
Формат : AC-3
Формат/Информация : Audio Coding 3
Коммерческое название : Dolby Digital
Идентификатор кодека : A_AC3
Продолжительность : 1 ч. 20 м.
Вид битрейта : Постоянный
Битрейт : 192 Кбит/сек
Каналы : 2 канала
ChannelLayout : L R
Частота : 48,0 КГц
Частота кадров : 31,250 кадров/сек (1536 SPF)
Метод сжатия : С потерями
Размер потока : 111 Мбайт (2%)
Заголовок : Русский ПД (HTB+)
Язык : Russian
ServiceKind/String : Complete Main
Default : Да
Forced : Нет
Аудио #2
Идентификатор : 3
Формат : AC-3
Формат/Информация : Audio Coding 3
Коммерческое название : Dolby Digital
Идентификатор кодека : A_AC3
Продолжительность : 1 ч. 20 м.
Вид битрейта : Постоянный
Битрейт : 192 Кбит/сек
Каналы : 2 канала
ChannelLayout : L R
Частота : 48,0 КГц
Частота кадров : 31,250 кадров/сек (1536 SPF)
Метод сжатия : С потерями
Размер потока : 111 Мбайт (2%)
Заголовок : Русский ЛО ()
Язык : Russian
ServiceKind/String : Complete Main
Default : Нет
Forced : Нет
Аудио #3
Идентификатор : 4
Формат : DTS
Формат/Информация : Digital Theater Systems
Идентификатор кодека : A_DTS
Продолжительность : 1 ч. 20 м.
Вид битрейта : Постоянный
Битрейт : 1509 Кбит/сек
Каналы : 2 канала
ChannelLayout : L R
Частота : 48,0 КГц
Частота кадров : 93,750 кадра/сек (512 SPF)
Битовая глубина : 24 бит
Метод сжатия : С потерями
Размер потока : 874 Мбайт (15%)
Заголовок : English
Язык : English
Default : Нет
Forced : Нет
Текст #1
Идентификатор : 5
Формат : UTF-8
Идентификатор кодека : S_TEXT/UTF8
Идентификатор кодека/Информация : UTF-8 Plain Text
Заголовок : Fors. Songs
Язык : English
Default : Да
Forced : Нет
Текст #2
Идентификатор : 6
Формат : UTF-8
Идентификатор кодека : S_TEXT/UTF8
Идентификатор кодека/Информация : UTF-8 Plain Text
Заголовок : Русский (dima360)
Язык : Russian
Default : Нет
Forced : Нет
Текст #3
Идентификатор : 7
Формат : UTF-8
Идентификатор кодека : S_TEXT/UTF8
Идентификатор кодека/Информация : UTF-8 Plain Text
Язык : English
Default : Нет
Forced : Нет
Текст #4
Идентификатор : 8
Формат : UTF-8
Идентификатор кодека : S_TEXT/UTF8
Идентификатор кодека/Информация : UTF-8 Plain Text
Заголовок : форс сонг рус гуглперевод
Default : Нет
Forced : Нет
Меню
00:06:47.365 : :Глава 01
00:15:33.057 : :Глава 02
00:20:19.300 : :Глава 03
00:26:14.446 : :Глава 04
00:30:57.730 : :Глава 05
00:36:12.711 : :Глава 06
00:42:18.536 : :Глава 07
00:49:32.302 : :Глава 08
00:55:06.760 : :Глава 09
01:00:10.398 : :Глава 10
01:09:44.596 : :Глава 11
01:20:57.853 : :Глава 12

Скриншоты







Скринлист

Файл дополнительно залит на ОБЛАКО
Vicious.Lips.1986.720p.BDRip.x264.mkv.torrent
Torrent: Registered [ 2018-10-23 16:55 ]

Download .torrent

Download

19 KB

Status: checked
Completed: 2 times
Size: 3.67 GB
 
[Profile] [PM]
Display posts:    
Reply to topic

Current time is: 26-Oct 09:54

All times are UTC + 3



You cannot post new topics in this forum
You cannot reply to topics in this forum
You cannot edit your posts in this forum
You cannot delete your posts in this forum
You cannot vote in polls in this forum
You cannot attach files in this forum
You can download files in this forum