Полководцы – 3000 / Предводители 3000 года / Вождь-3000 / Dark Vengeance / Warlord 3000 / Warlords 3000 / Warforce 3000 (Фарукх Ахмет / Faruque Ahmed) [1992, США, фантастика, боевик, VHSRip] АО (В. Горчаков)

Reply to topic
 
Author Message

Guest

Gender: Unknown

Longevity: 50 years

Post 23-Oct-2018 03:59

[Quote]

Полководцы – 3000 / Предводители 3000 года / Вождь-3000 / Dark Vengeance / Warlord 3000 / Warlords 3000 / Warforce 3000
Страна: США, Fahmed Entertainment Inc.
Жанр: фантастика, боевик
Год выпуска: 1992
Продолжительность: 01:32:18
Перевод: Авторский (одноголосый) Василий Горчаков
Режиссер: Фарукх Ахмет / Faruque Ahmed
В ролях:
Jay Roberts Jr. ... Nova (as Jay Roberts)
Denice Duff ... Anani (as Denice Marie Duff)
John Croshaw ... Yeager
Archie Gibson ... Old man
Wayne Duvall ... Veros
Jeff Sable ... Red Ears
Mindi Miller ... Bull Woman (as Ty Randolph)
Steve Blanchard ... Gen. Tadder
Phil Sky ... Big Ox
Paul Coulj ... Romo
Velma Wayland ... Aras
Mordechai Raphael ... Roylis
Chris Gardner ... Nocca
Joseph Lucus ... Zad (as Joe Lucus)
Michael Jacobs ... Snal
Описание: #1 Будущее.. Человечество пережило ужас ядерной катастрофы. Земля, превращенная в бесплодную пустыню, медленно умирает. В мире царят насилие и жестокость. Последствия радиации повлекли за собой неизлечимые болезни, породившие мутантов. На безжизненных просторах свой страшный порядок насаждают Полководцы. Они грабят, насилуют и убивают.
#2 ...И земля стала пустыней. И все, кто выжил, уже не верили в то, что небо когда-то было голубым. В то, что не было раньше радиационных бурь. В то, что вода ценилась повсюду как величайшая драгоценность, но не была величайшей редкостью. В то, что спокойная жизнь в нормальной семье встречалась повседневно на каждом шагу и не казалась исключением. Бандиты убили родителей Новы и его сестру прямо на его глазах, когда Нова вернулся домой после пятилетнего отсутствия. Потом изверги подожгли дом, и Нова чудом избежал гибели. И тогда он решил мстить.
Не путайте с фильмом WARLORDS (Полководцы 3000) с Девидом Карадайном.

Качество видео: VHSRip
Формат: MKV
Видео: x264, 1671 кбит/с, 720x540, 23.976 к/с
Аудио 1: Русский АО (AC3, 2 ch, 192 Кбит/с)
Аудио 2: Английский (AC3, 2 ch, 192 Кбит/с)
Аудио 3: Итальянский (AC3, 2 ch, 192 Кбит/с)
Работа над релизом:
За видеоряд спасибо - AlexNT60
Работа со звуком - kosmoaelita



Пример русского перевода

Дополнительно

слоган «One man must avenge his past to save his future ... and planet Earth!»
Also Known As (AKA)
Germany Warforce 3000
Hungary A 3000. év lovagjai
Netherlands (video box title) Warlords 3000
USA (video title) Warlord 3000
USA (video box title) Warlords 3000

Отзывы

А ведь с этого фильма по сюжету сделали игру The Fall: Last Days of Gaya
---------------------------
->Creepin писал(а):
Подскажите, это случайно не в этом фильме главгерой таскает за собой в коробке приятеля - маленького мутантика в виде говорящих мозгов?
это в фильме полководцы-3000 с дэвидом кэррадайном, а это другой фильм

Рецензия

MediaInfo

Общее
Уникальный идентификатор : 234114803971541678424787474940340103887 (0xB020DF02FC6FD782951C2DEE06DE6ACF)
Полное имя : N:\BD-DISC\Dark Vengeance aka Warlord 3000 1992.x264.VHSRip.Rus.kosmoaelita.mkv
Формат : Matroska
Версия формата : Version 4 / Version 2
Размер файла : 1,45 Гбайт
Продолжительность : 1 ч. 32 м.
Общий поток : 2249 Кбит/сек
Название фильма : Warlord 3000 (1992)
Дата кодирования : UTC 2018-10-21 10:45:10
Программа кодирования : mkvmerge v6.6.0 ('The Edge Of The In Between') built on Dec 1 2013 17:55:00
Библиотека кодирования : libebml v1.3.0 + libmatroska v1.4.1
Обложка : Yes
Attachments : Cover.jpg
Видео
Идентификатор : 1
Формат : AVC
Формат/Информация : Advanced Video Codec
Профиль формата : High@L4.1
Параметр CABAC формата : Да
Параметр ReFrames формата : 8 кадров
Идентификатор кодека : V_MPEG4/ISO/AVC
Продолжительность : 1 ч. 32 м.
Битрейт : 1671 Кбит/сек
Ширина : 720 пикселей
Высота : 540 пикселей
Соотношение сторон : 4:3
Режим частоты кадров : Постоянный
Частота кадров : 25,000 кадров/сек
Цветовое пространство : YUV
Субдискретизация насыщенности : 4:2:0
Битовая глубина : 8 бит
Тип развёртки : Прогрессивная
Бит/(Пиксели*Кадры) : 0.172
Размер потока : 1,05 Гбайт (72%)
Заголовок : http://kosmoaelita.com/viewtopic.php?t=2575
Библиотека кодирования : x264 core 130 r2273 b3065e6
Настройки программы : cabac=1 / ref=8 / deblock=1:-3:-3 / analyse=0x3:0x133 / me=umh / subme=11 / psy=1 / psy_rd=0.99:0.14 / mixed_ref=1 / me_range=24 / chroma_me=1 / trellis=2 / 8x8dct=1 / cqm=0 / deadzone=21,11 / fast_pskip=1 / chroma_qp_offset=-3 / threads=6 / lookahead_threads=1 / sliced_threads=0 / nr=0 / decimate=1 / interlaced=0 / bluray_compat=0 / constrained_intra=0 / bframes=8 / b_pyramid=2 / b_adapt=2 / b_bias=0 / direct=3 / weightb=1 / open_gop=0 / weightp=2 / keyint=210 / keyint_min=21 / scenecut=40 / intra_refresh=0 / rc_lookahead=80 / rc=2pass / mbtree=1 / bitrate=1671 / ratetol=1.0 / qcomp=0.65 / qpmin=0 / qpmax=69 / qpstep=4 / cplxblur=20.0 / qblur=0.5 / ip_ratio=1.25 / aq=1:0.90
Default : Да
Forced : Нет
Аудио #1
Идентификатор : 2
Формат : AC-3
Формат/Информация : Audio Coding 3
Расширение режима : CM (complete main)
Параметр Endianness формата : Big
Идентификатор кодека : A_AC3
Продолжительность : 1 ч. 32 м.
Вид битрейта : Постоянный
Битрейт : 192 Кбит/сек
Каналы : 2 канала
Расположение каналов : Front: L R
Частота : 48,0 КГц
Частота кадров : 31,250 кадров/сек (1536 spf)
Метод сжатия : С потерями
Размер потока : 127 Мбайт (9%)
Заголовок : Русский АО (В.Горчаков)
Язык : Russian
Default : Да
Forced : Нет
Аудио #2
Идентификатор : 3
Формат : AC-3
Формат/Информация : Audio Coding 3
Расширение режима : CM (complete main)
Параметр Endianness формата : Big
Идентификатор кодека : A_AC3
Продолжительность : 1 ч. 32 м.
Вид битрейта : Постоянный
Битрейт : 192 Кбит/сек
Каналы : 2 канала
Расположение каналов : Front: L R
Частота : 48,0 КГц
Частота кадров : 31,250 кадров/сек (1536 spf)
Метод сжатия : С потерями
Размер потока : 127 Мбайт (9%)
Язык : English
Default : Нет
Forced : Нет
Аудио #3
Идентификатор : 4
Формат : AC-3
Формат/Информация : Audio Coding 3
Расширение режима : CM (complete main)
Параметр Endianness формата : Big
Идентификатор кодека : A_AC3
Продолжительность : 1 ч. 32 м.
Вид битрейта : Постоянный
Битрейт : 192 Кбит/сек
Каналы : 2 канала
Расположение каналов : Front: L R
Частота : 48,0 КГц
Частота кадров : 31,250 кадров/сек (1536 spf)
Метод сжатия : С потерями
Размер потока : 127 Мбайт (9%)
Язык : Italian
Default : Нет
Forced : Нет
Меню
00:00:00.000 : :Глава 01
00:12:14.010 : :Глава 02
00:25:11.180 : :Глава 03
00:34:56.240 : :Глава 04
00:46:32.140 : :Глава 05
00:59:06.090 : :Глава 06
01:09:54.070 : :Глава 07
01:21:07.030 : :Глава 08
01:30:17.120 : :Глава 09

Скриншоты















Скринлист

Файл дополнительно залит на ОБЛАКО
[Profile] [PM]
Display posts:    
Reply to topic

Current time is: 29-Sep 08:00

All times are UTC + 3



You cannot post new topics in this forum
You cannot reply to topics in this forum
You cannot edit your posts in this forum
You cannot delete your posts in this forum
You cannot vote in polls in this forum
You cannot attach files in this forum
You cannot download files in this forum