Космический мститель - пришелец / Инопланетный террор / Alien Space Avenger (Ричард В. Хайнс / Richard W. Haines) [1989, США, ужасы, фантастика, комедия, VHSRip] АО (ID-Daemon)

Reply to topic
DL-List and Torrent activity
Size:  876 MB   |    Registered:  2 years   |    Completed:  0 times

Seeder not seen: 2 years

 
   
 
 
 
Author Message

Guest

Gender: Unknown

Longevity: 50 years

Post 08-Oct-2018 19:29

[Quote]

Космический мститель - пришелец / Инопланетный террор / Alien Space Avenger
Страна: США
Жанр: ужасы, фантастика, комедия
Год выпуска: 1989
Продолжительность: 01:20:39
Перевод: Авторский (одноголосый) ID-Daemon
Режиссер: Ричард В. Хайнс / Richard W. Haines
В ролях: Robert Prichard ... Rex
Michael McCleery ... Derek (as Mike McClerie)
Charity Staley ... Karen
Gina Mastrogiacomo ... Ginny
Angela Nicholas ... Doris
Kirk Fogg ... Matt (as Kirk Fairbanks Fogg)
Marty Roberts ... Mr. Green
Jamie Gillis ... Businessman (as Jaimie Gillis)
William Zacchi ... Vito
George Okon ... Cop
Robert Cicchini ... Raoul
Leslie Sternbergh ... Trixie
Ellen Kinnally ... Honey (as Ellen Kinnaly)
Elisa Gabrielli ... Red Riding Hood (as Elisa Pensler)
Char ... Candy
Описание: В 1939г. четверо межпланетных террористов сбежали с планеты-тюрьмы и совершили аварийную посадку на Земле, где они вселяются в тела местных жителей. Межгалактический спецагент был послан, чтобы уничтожить их. Они залегли на дно примерно на 50 лет, после чего вновь освобождаются. Основное действие происходит в 1989 году.
P.S. В фильме есть недоработки: в сценах, где актеры должны быть обнажены, периодически неожиданно на них появляются полотенца и другие предметы, которых быть на них не должно.

Качество видео: VHSRip
Формат: MKV
Видео: XviD, 1104 кбит/с, 528x400, 23.976 к/с
Аудио 1: Русский АО(AC3, 2 ch, 192 Кбит/с)
Аудио 2: Английский (AC3, 2 ch, 192 Кбит/с)
Работа над релизом:
Видеоряд найден в сети



Пример русского перевода

Дополнительно

слоган «They can run, they can hide, they can kill, but will they die?»
Also Known As (AKA)
Space Avenger
Poland Kosmiczny msciciel
West Germany Alien Terror

Знаете ли вы, что...

В фильме есть недоработки: в сценах, где актеры должны быть обнажены, периодически неожиданно на них появляются полотенца и другие предметы, которых быть на них не должно.

Отзывы

Всегда знал актрису в красном платье по софткоровской дряни как Анжелу Дэвис. Интнресно, связаны ли неожиданности, указанные в доп. инфо следствием r-rated версии фильма?
------------------
в сценах, где актеры должны быть обнажены, периодически неожиданно на них появляются полотенца ))))
-----------------
Да, одни пришельцы-чучундры чего стоят
---------------------
Посмотрел с большим удовольствием. C полотенцами и нижним бельем вообще прикольно. Если бы этого не было, то это стоило бы придумать.
---------------------
Фильм-пародия на тему вторжения инопланетных похитителей тел. Роль подруги главного героя исполняет эффектная Джина Мастроджакомо из "Голого пистолета 2 1/2" (1991), сыгравшая там продавщицу секс-шопа.
-------------------------
В принципе все косяки с нижним бельем станут невидимы, если когда-нибудь появится dvdrip в 16:9
------------------------
Смотрел и наслаждался. Такой безбашенный, сделанный с кайфом трэш из 80-х годов.
Любителям подобного жанра смотреть обязательно.

MediaInfo

Общее
Уникальный идентификатор : 221680607879643803860646751475124086310 (0xA6C621D007B34B8F8DF2DC039B8B2626)
Полное имя : N:\BD-DISC\Alien Space Avenger 1989.XviD.VHSRip.Rus.kosmoaelita.mkv
Формат : Matroska
Версия формата : Version 4 / Version 2
Размер файла : 876 Мбайт
Продолжительность : 1 ч. 20 м.
Общий поток : 1519 Кбит/сек
Название фильма : Alien Space Avenger / 1988 / kosmoaelita
Дата кодирования : UTC 2018-10-07 23:55:27
Программа кодирования : mkvmerge v6.6.0 ('The Edge Of The In Between') built on Dec 1 2013 17:55:00
Библиотека кодирования : libebml v1.3.0 + libmatroska v1.4.1
Attachments : POSTER Alien Space Avenger.jpg
Видео
Идентификатор : 1
Формат : MPEG-4 Visual
Профиль формата : Advanced Simple@L5
Параметр BVOP формата : 1
Параметр QPel формата : Нет
Параметр GMC формата : Без точки перехода
Параметр матрицы формата : Default (H.263)
Идентификатор кодека : V_MS/VFW/FOURCC / XVID
Идентификатор кодека/Подсказка : XviD
Продолжительность : 1 ч. 20 м.
Битрейт : 1104 Кбит/сек
Ширина : 528 пикселей
Высота : 400 пикселей
Соотношение сторон : 4:3
Режим частоты кадров : Постоянный
Частота кадров : 23,976 (24000/1001) кадра/сек
Цветовое пространство : YUV
Субдискретизация насыщенности : 4:2:0
Битовая глубина : 8 бит
Тип развёртки : Прогрессивная
Метод сжатия : С потерями
Бит/(Пиксели*Кадры) : 0.218
Размер потока : 637 Мбайт (73%)
Заголовок : http://kosmoaelita.com/viewtopic.php?t=2558
Библиотека кодирования : XviD 1.2.0.dev47 (UTC 2006-11-01)
Default : Да
Forced : Нет
Аудио #1
Идентификатор : 2
Формат : AC-3
Формат/Информация : Audio Coding 3
Расширение режима : CM (complete main)
Параметр Endianness формата : Big
Идентификатор кодека : A_AC3
Продолжительность : 1 ч. 20 м.
Вид битрейта : Постоянный
Битрейт : 192 Кбит/сек
Каналы : 1 канал
Расположение каналов : Front: C
Частота : 48,0 КГц
Частота кадров : 31,250 кадров/сек (1536 spf)
Метод сжатия : С потерями
Размер потока : 111 Мбайт (13%)
Заголовок : Руский АО (ID-Daemon)
Язык : Russian
Default : Да
Forced : Нет
Аудио #2
Идентификатор : 3
Формат : AC-3
Формат/Информация : Audio Coding 3
Расширение режима : CM (complete main)
Параметр Endianness формата : Big
Идентификатор кодека : A_AC3
Продолжительность : 1 ч. 20 м.
Вид битрейта : Постоянный
Битрейт : 192 Кбит/сек
Каналы : 1 канал
Расположение каналов : Front: C
Частота : 48,0 КГц
Частота кадров : 31,250 кадров/сек (1536 spf)
Метод сжатия : С потерями
Размер потока : 111 Мбайт (13%)
Язык : English
Default : Нет
Forced : Нет

Скриншоты


















Скринлист

Файл дополнительно залит на ОБЛАКО
Alien Space Avenger 1989.XviD.VHSRip.Rus.kosmoaelita.mkv.torrent
Torrent: Registered [ 2018-10-08 19:32 ]

Download .torrent

Download

17 KB

Status: checked
Completed: 0 times
Size: 876 MB
 


Last edited by on 2018-10-09 01:11; edited 1 time in total
[Profile] [PM]

Трамвай-фильм

Gender: Male

Longevity: 6 years 2 months

Posts: 1868

Location: Россия

Post 08-Oct-2018 20:02 (after 32 minutes)

[Quote]

видел цензурированную версию этого фильма в многоголоске, хотя конечно такая регенерация просто чушь
[Profile] [PM]
Display posts:    
Reply to topic

Current time is: 28-Oct 22:27

All times are UTC + 3



You cannot post new topics in this forum
You cannot reply to topics in this forum
You cannot edit your posts in this forum
You cannot delete your posts in this forum
You cannot vote in polls in this forum
You cannot attach files in this forum
You can download files in this forum