Магия Филмейшн / The Magic of Filmation (Джулио Силва) [2014, США, документальный, DVDRip] (АО : Трамвай фильм)

Reply to topic
DL-List and Torrent activity
Size:  320 MB   |    Registered:  9 months 13 days   |    Completed:  2 times

Seeder not seen: 45 minutes

 
   
 
 
 
Author Message

Трамвай-фильм ®

Gender: Male

Longevity: 4 years 11 months

Posts: 1469

Location: Россия

Post 05-Oct-2018 17:03

[Quote]

Магия Филмейшн / The Magic of Filmation
Страна: США
Жанр: документальный
Год выпуска: 2014
Продолжительность: 00:32:44
Перевод: Авторский (одноголосый) Трамвай фильм
Режиссер: Джулио Силва
В ролях: Лу Шаймер, Эрика Шаймер, Хэл Сазерлэнд, Норм Прескотт, Робби Ландан, Том Сито, Том Татаранович, Роуби Горен, Пэм Винстент, Дэвид Тиг и др.
Описание: Исторический фильм о студии Filmation, которая с 1962 по 1989 годы прославилась своей работой над детскими программами и мультипликационными шоу.
Качество видео: DVDRip
Формат видео: AVI
Видео: Xvid, 640x480, 29fps, 1222kbps
Аудио: MP3, 44100Hz, stereo, 128kbps

MediaInfo

Complete name : The Magic of Filmation.avi
Format : AVI
Format/Info : Audio Video Interleave
File size : 320 MiB
Duration : 32 min 43 s
Overall bit rate : 1 368 kb/s
Video
ID : 0
Format : MPEG-4 Visual
Format profile : Simple@L3
Format settings, BVOP : No
Format settings, QPel : No
Format settings, GMC : No warppoints
Format settings, Matrix : Default (H.263)
Codec ID : XVID
Codec ID/Hint : XviD
Duration : 32 min 43 s
Bit rate : 1 222 kb/s
Width : 640 pixels
Height : 480 pixels
Display aspect ratio : 4:3
Frame rate : 29.970 (30000/1001) FPS
Original frame rate : 29.000 FPS
Color space : YUV
Chroma subsampling : 4:2:0
Bit depth : 8 bits
Scan type : Progressive
Compression mode : Lossy
Bits/(Pixel*Frame) : 0.133
Stream size : 286 MiB (89%)
Writing library : XviD 1.2.1 (UTC 2008-12-04)
Audio
ID : 1
Format : MPEG Audio
Format version : Version 1
Format profile : Layer 3
Format settings : Joint stereo / MS Stereo
Codec ID : 55
Codec ID/Hint : MP3
Duration : 32 min 43 s
Bit rate mode : Constant
Bit rate : 128 kb/s
Channel(s) : 2 channels
Sampling rate : 44.1 kHz
Compression mode : Lossy
Stream size : 30.0 MiB (9%)
Alignment : Aligned on interleaves
Interleave, duration : 26 ms (0.78 video frame)
Writing library : LAME3.98.2

Скриншоты





Файл дополнительно залит на ОБЛАКО
The-Magic-of-Filmation.torrent
Torrent: Registered [ 2018-10-05 17:03 ]

Download .torrent

Download

13 KB

Status: checked
Completed: 2 times
Size: 320 MB
 
[Profile] [PM]
Quick Reply

Name:

            
Heads necessary to send messages to enable JavaScript
Display posts:    
Reply to topic

Current time is: 19-Jul 09:18

All times are UTC + 3



You can post new topics in this forum
You can reply to topics in this forum
You cannot edit your posts in this forum
You cannot delete your posts in this forum
You cannot vote in polls in this forum
You cannot attach files in this forum
You can download files in this forum