Спящие псы / Sleeping Dogs (Майкл Бафаро / Micheal Bafaro) [1997, Канада, Чехия, Фантастика, DVDRip] ПД (Стилан Видео), АО (Дольский, с VHS)

Reply to topic
 
Author Message

kosmoaelita ®

Gender: Male

Longevity: 8 years

Posts: 1651

Post 29-Sep-2018 05:47

[Quote]

Спящие псы / Sleeping Dogs
Страна: Канада, Чехия, North American Pictures
Жанр: Фантастика
Год выпуска: 1997
Продолжительность: 01:36:41
Перевод 1: Профессиональный (двухголосый) Стилан Видео
Перевод 2: Авторский (одноголосый) А.Дольский (с VHS)
Режиссер: Майкл Бафаро / Micheal Bafaro
В ролях:
Scott McNeil ... Harry Maxwell
C. Thomas Howell ... Sanchez Boon
Heather Hanson ... Pandora Grimes
Kiara Hunter ... Zee 4R (as Ciara Hunter)
Richard Toth ... Wallace
Angela Madden ... Stocker
Stephen Fisher ... Morton
Sean Fuller ... Sweeney
Paul Jarrett ... Willy Boy Pruitt
Gregory Linington ... Brock
Christopher Clarke ... Grogan
Julius Krajewski ... Samson
Seth Markel ... Crenshaw
Darren Dalton ... Dexter
Описание: В Лос-Анжелесе ХХI века обычный пройдоха Гарри Максвелл решает разобраться с Санчесом Буном (С. Томас Хоуэлл) - законченным психопатом и главой огромного преступного картеля. Но, пробравшись в штаб-квартиру последнего и спрятавшись в грузовом контейнере в ожидании Буна, он попадает "из огня в полымя"! По воле случая он оказывается на борту грузового звездолета, доставляющего заключенных на Титан - в тюрьму на самой окраине Галактики… вместе с недавно арестованным Буном. Завязывается жестокая бойня за управление кораблем, а значит, и за право выжить!
Качество видео: DVDRip
Формат: MKV
Видео: x264, 1467 кбит/с, 640x478, 23.976 к/с,
Аудио 1: Русский ПД (AC3, 2 ch, 192 Кбит/с)
Аудио 2: Русский АО (Дольский) c VHS (AC3, 2 ch, 192 Кбит/с)
Аудио 3: Английский (AC3, 2 ch, 192 Кбит/с)
Работа над релизом:
Видеоряд найден на синемагеддоне
Работа по синхрону русской дорожки - kosmoaelita



Пример русского ПД перевода

Дополнительно

слоган «The only thing more terrifying than a vengeful soul is a rabid one»
Also Known As (AKA)
Spain Destellos asesinos
France Deviants
France Déviants
Greece (video title) Adespota skylia
Hungary Űrbörtön
Italy Prigionieri nello spazio
Turkey (TV title) (Turkish title) Uyuyan Köpekler
Формат копии: 35 mm
Формат съёмок: 35 mm
Изображение: цветное
Язык: английский

Отзывы

Очень неплохая игра Хоуэлла . Если бы в этот проект вложили бы больше средств получилось бы просто класное кино . Эпизод с Испанскими минами очень позабавил
--------------------------
Динамичный смотрибельный боевик. Есть логические неувязки.
-----------------------
Типичный образчик малобюджетного кино, но посмотреть вполне можно.

Рецензия

Суперпрофессиональный вор Гарри Максвелл пробирается на подпольную фабрику по обработке драгоценных камней (обрабатывают их девушки-рабыни в нижнем белье и электронных ошейниках), принадлежащую жестокому злодею Санчесу Буну (Си Томас Хауэлл). В то же время на фабрику устраивает облаву полиция, охотящаяся за Буном. Гарри вместе со спасенной им рабыней-блондинкой по имени Пандора случайно оказываются запертыми в контейнере с оружием, предназначенном для отправки на Титан. Буна хватают и отправляют в тюрьму строгого режима опять же на Титан. Разумеется, все герои летят на одном космическом корабле. По пути к месту назначения Бун каким-то образом освобождается, пробуждает из сна нескольких преступников (среди них выделяются сексуальный маньяк и грудастая женщина-киборг), берет команду в заложники и захватывает власть на звездолете. Конечно же, вор с девушкой выбираются из контейнера и ввязываются в конфликт. А тем временем управляющий тюрьмой на Титане принимает решение уничтожить опасный звездолет, плюнув на заложников. Ракеты летят к цели, а курс изменить невозможно...
Нормальный фантастический боевик, ничем особенным не блещет, но вполне смотрибельный. Космосмические сцены нарисованы довольно симпатично. Один из продюсеров – столп чешсплойтейшна и лесбосплойтейшна Ллойд Симандл Smile На форуме он пока упоминался только в качестве сорежиссера постапокалипсиса Империя пепла, но, думаю, со временем такое положение дел изменится…

MediaInfo

Общее
Уникальный идентификатор : 219943352829432820967593163291966644612 (0xA5778C8690E0EEF883EDBA226AB52184)
Полное имя : N:\BD-DISC\Sleeping Dogs 1997.x264.DVDRip.2xRus.kosmoaelita.mkv
Формат : Matroska
Версия формата : Version 4
Размер файла : 1,43 Гбайт
Продолжительность : 1 ч. 36 м.
Общий поток : 2113 Кбит/сек
Название фильма : Спящие псы / Sleeping Dogs / 1997 / kosmoaelita
Дата кодирования : UTC 2019-11-19 18:02:33
Программа кодирования : mkvmerge v7.8.0 ('River Man') 32bit built on Mar 27 2015 16:18:02
Библиотека кодирования : libebml v1.3.1 + libmatroska v1.4.2
Attachments : Delete Russian.rar / poster.jpg
Видео
Идентификатор : 1
Формат : AVC
Формат/Информация : Advanced Video Codec
Профиль формата : Main@L4
Настройки формата : CABAC / 4 Ref Frames
Параметр CABAC формата : Да
Параметр RefFrames формата : 4 кадра
Идентификатор кодека : V_MPEG4/ISO/AVC
Продолжительность : 1 ч. 36 м.
Битрейт : 1463 Кбит/сек
Ширина : 640 пикселей
Высота : 478 пикселей
Соотношение сторон : 4:3
Режим частоты кадров : Постоянный
Частота кадров : 23,976 (24000/1001) кадра/сек
Цветовое пространство : YUV
Субдискретизация насыщенности : 4:2:0
Битовая глубина : 8 бит
Тип развёртки : Прогрессивная
Бит/(Пиксели*Кадры) : 0.199
Размер потока : 1012 Мбайт (69%)
Заголовок : http://kosmoaelita.com/viewtopic.php?t=2549
Библиотека кодирования : x264 core 130 r2273 b3065e6
Настройки программы : cabac=1 / ref=1 / deblock=1:0:0 / analyse=0x1:0x111 / me=hex / subme=2 / psy=1 / psy_rd=1.00:0.00 / mixed_ref=0 / me_range=16 / chroma_me=1 / trellis=0 / 8x8dct=0 / cqm=0 / deadzone=21,11 / fast_pskip=1 / chroma_qp_offset=0 / threads=3 / lookahead_threads=1 / sliced_threads=0 / nr=0 / decimate=1 / interlaced=0 / bluray_compat=0 / constrained_intra=0 / bframes=3 / b_pyramid=2 / b_adapt=1 / b_bias=0 / direct=1 / weightb=1 / open_gop=0 / weightp=1 / keyint=240 / keyint_min=24 / scenecut=40 / intra_refresh=0 / rc_lookahead=10 / rc=crf / mbtree=1 / crf=17.0 / qcomp=0.60 / qpmin=0 / qpmax=69 / qpstep=4 / vbv_maxrate=20000 / vbv_bufsize=25000 / crf_max=0.0 / nal_hrd=none / ip_ratio=1.40 / aq=1:1.00
Язык : English
Default : Да
Forced : Нет
Цветовой диапазон : Limited
Основные цвета : BT.601 NTSC
Характеристики трансфера : BT.709
Коэффициенты матрицы : BT.601
Аудио #1
Идентификатор : 2
Формат : AC-3
Формат/Информация : Audio Coding 3
Коммерческое название : Dolby Digital
Идентификатор кодека : A_AC3
Продолжительность : 1 ч. 36 м.
Вид битрейта : Постоянный
Битрейт : 192 Кбит/сек
Каналы : 2 канала
ChannelLayout : L R
Частота : 48,0 КГц
Частота кадров : 31,250 кадров/сек (1536 SPF)
Метод сжатия : С потерями
Размер потока : 133 Мбайт (9%)
Заголовок : Русский ПД (Стилан Видео)
Язык : Russian
ServiceKind/String : Complete Main
Default : Да
Forced : Нет
Аудио #2
Идентификатор : 3
Формат : AC-3
Формат/Информация : Audio Coding 3
Коммерческое название : Dolby Digital
Идентификатор кодека : A_AC3
Продолжительность : 1 ч. 36 м.
Вид битрейта : Постоянный
Битрейт : 192 Кбит/сек
Каналы : 2 канала
ChannelLayout : L R
Частота : 48,0 КГц
Частота кадров : 31,250 кадров/сек (1536 SPF)
Метод сжатия : С потерями
Размер потока : 133 Мбайт (9%)
Заголовок : Русский АО (А.Дольский) - с VHS
Язык : Russian
ServiceKind/String : Complete Main
Default : Нет
Forced : Нет
Аудио #3
Идентификатор : 4
Формат : AC-3
Формат/Информация : Audio Coding 3
Коммерческое название : Dolby Digital
Идентификатор кодека : A_AC3
Продолжительность : 1 ч. 36 м.
Вид битрейта : Постоянный
Битрейт : 224 Кбит/сек
Каналы : 2 канала
ChannelLayout : L R
Частота : 48,0 КГц
Частота кадров : 31,250 кадров/сек (1536 SPF)
Метод сжатия : С потерями
Размер потока : 155 Мбайт (11%)
Язык : English
ServiceKind/String : Complete Main
Default : Нет
Forced : Нет

Скриншоты















Скринлист

Файл дополнительно залит на ОБЛАКО
[Profile] [PM]
Display posts:    
Reply to topic

Current time is: 29-Sep 15:55

All times are UTC + 3



You cannot post new topics in this forum
You cannot reply to topics in this forum
You cannot edit your posts in this forum
You cannot delete your posts in this forum
You cannot vote in polls in this forum
You cannot attach files in this forum
You cannot download files in this forum