Падающий огонь / Falling Fire / 3 Minutes to Impact (Дэниэл Д’Ор / Daniel D'Or) [1998, США, Канада, фантастика, DVDRip] АО (С.Визгунов)

Reply to topic
 
Author Message

Guest

Gender: Unknown

Longevity: 50 years

Post 21-Sep-2018 00:56

[Quote]

Падающий огонь / Falling Fire / 3 Minutes to Impact
Страна: США, Канада, Producers Network Associates, The Movie Network (TMN)
Жанр: фантастика
Год выпуска: 1998
Продолжительность: 01:38:30
Перевод: Авторский (одноголосый) С.Визгунов
Режиссер: Дэниэл Д’Ор / Daniel D'Or
В ролях:
Michael Paré..............Daryl Boden
Heidi von Palleske........Marilyn Boden
Mackenzie Gray............Joe Schneider
Zehra Leverman............Rene Lessard
Cedric Turner.............Cyril Jackson
Christian Vidosa..........Lopez
Morris Durante............Jimmy Rice
Jacklyn Francis...........Nikki Bardini
Michaela Matthieu.........Chris Martel
Geoffrey Pounsett.........Marty Anderson
Tim Ward..................Dr. Hanan
Christopher Wall..........Mr. Ames
Herbie Terry..............Adam Boden
Laurel A. Johnson.........ISA Expert #1
Tony Curtis Blondell......ISA Expert #2
Описание: 2051 год. Измученная Земля отказалась обеспечивать человечество всем необходимым для жизни. Теперь людям предстоит отправиться к дальним пределам Вселенной. А может быть, и еще дальше. Туда, где еще никто не бывал. С этой миссией в космос отправляется корабль, пилотируемый таинственным и загадочным Дерилом Боуденом.
Но сети зла уже расставлены и с нетерпением ждут добычи. Судьба планеты решается в космосе, а судьба всей Галактики - на Земле. Никто не знает, когда начался этот поединок. Никому не известно, чем он завершится.

Качество видео: DVDRip
Формат: MKV
Видео: XviD, 1621 кбит/с, 704x544, 25 к/с
Аудио 1: Русский АО (Визгунов) (AC3, 2 ch, 192 Кбит/с)
Аудио 2: Английский (AC3, 2 ch, 192 Кбит/с)
Работа над релизом:
Видеоряд найден в сети.
Работа с дорожками - kosmoaelita



Пример русского перевода

Дополнительно

слоган «The Year: 2051. The Target: Earth. The Mission: Save Humanity»
бюджет CAD 2 180 000
Also Known As (AKA)
(video title) 3 Minutes to Impact
Bulgaria (Bulgarian title) Връхлитащ огън
Brazil Chuva de Fogo
Canada (French title) (video box title) Le péril
Canada (English title) The Cusp
Germany Falling Fire - Countdown zur Apokalypse
Spain (Catalan title) Impacte inminent
Greece (video title) Pyrini vrohi
Hungary Tűz az űrből
Italy La terra è in pericolo

MediaInfo

Общее
Уникальный идентификатор : 221623775246496171609631419436379603445 (0xA6BB2FBF59E73C369FE65A6B537301F5)
Полное имя : N:\BD-DISC\Falling Fire 1998.XviD.DVDRip.Rus.kosmoaelita.mkv
Формат : Matroska
Версия формата : Version 4 / Version 2
Размер файла : 1,41 Гбайт
Продолжительность : 1 ч. 38 м.
Общий поток : 2046 Кбит/сек
Название фильма : Falling Fire / 1998 / kosmoaelita
Дата кодирования : UTC 2018-09-20 21:56:35
Программа кодирования : mkvmerge v6.6.0 ('The Edge Of The In Between') built on Dec 1 2013 17:55:00
Библиотека кодирования : libebml v1.3.0 + libmatroska v1.4.1
Attachments : POSTER.jpg
Видео
Идентификатор : 1
Формат : MPEG-4 Visual
Профиль формата : Advanced Simple@L5
Параметр BVOP формата : 1
Параметр QPel формата : Нет
Параметр GMC формата : Без точки перехода
Параметр матрицы формата : Default (MPEG)
Идентификатор кодека : V_MS/VFW/FOURCC / XVID
Идентификатор кодека/Подсказка : XviD
Продолжительность : 1 ч. 38 м.
Битрейт : 1621 Кбит/сек
Ширина : 704 пикселя
Высота : 544 пикселя
Соотношение сторон : 1,294
Режим частоты кадров : Постоянный
Частота кадров : 25,000 кадров/сек
Цветовое пространство : YUV
Субдискретизация насыщенности : 4:2:0
Битовая глубина : 8 бит
Тип развёртки : Прогрессивная
Метод сжатия : С потерями
Бит/(Пиксели*Кадры) : 0.169
Размер потока : 1,12 Гбайт (79%)
Заголовок : http://kosmoaelita.com/viewtopic.php?t=2544
Библиотека кодирования : XviD 1.2.1 (UTC 2008-12-04)
Default : Да
Forced : Нет
Аудио #1
Идентификатор : 2
Формат : AC-3
Формат/Информация : Audio Coding 3
Расширение режима : CM (complete main)
Параметр Endianness формата : Big
Идентификатор кодека : A_AC3
Продолжительность : 1 ч. 38 м.
Вид битрейта : Постоянный
Битрейт : 192 Кбит/сек
Каналы : 2 канала
Расположение каналов : Front: L R
Частота : 48,0 КГц
Частота кадров : 31,250 кадров/сек (1536 spf)
Метод сжатия : С потерями
Размер потока : 135 Мбайт (9%)
Заголовок : Русский АО (Визгунов)
Язык : Russian
Default : Да
Forced : Нет
Аудио #2
Идентификатор : 3
Формат : AC-3
Формат/Информация : Audio Coding 3
Расширение режима : CM (complete main)
Параметр Endianness формата : Big
Идентификатор кодека : A_AC3
Продолжительность : 1 ч. 38 м.
Вид битрейта : Постоянный
Битрейт : 192 Кбит/сек
Каналы : 2 канала
Расположение каналов : Front: L R
Частота : 48,0 КГц
Частота кадров : 31,250 кадров/сек (1536 spf)
Метод сжатия : С потерями
Размер потока : 135 Мбайт (9%)
Язык : English
Default : Нет
Forced : Нет

Скриншоты












Скринлист

Файл дополнительно залит на ОБЛАКО
[Profile] [PM]
Display posts:    
Reply to topic

Current time is: 29-Sep 08:03

All times are UTC + 3



You cannot post new topics in this forum
You cannot reply to topics in this forum
You cannot edit your posts in this forum
You cannot delete your posts in this forum
You cannot vote in polls in this forum
You cannot attach files in this forum
You cannot download files in this forum