Безмолвная звезда / Der Schweigende Stern / The Silent Star / First Spaceship on Venus (Курт Метциг / Kurt Maetzig) [1960 г., фантастика, DVDRip] ДБ, ПМ

Reply to topic
 
Author Message

Guest ®

Gender: Unknown

Post 11-Oct-2012 21:12

[Quote]

Безмолвная звезда / Der Schweigende Stern / The Silent Star
Год выпуска: 1960
Страна: Польша, ГДР
Жанр: фантастика
Продолжительность: 01:29:46
Перевод: Дублированный, профессиональный многоголосый
Режиссер: Курт Метциг / Kurt Maetzig
В ролях: Олдржих Лукеш, Игнаци Маховски, Юлиус Онгеве, Йоко Тани, Михаил Постников, Курт Ракельманн, Гюнтер Зимон, Танг Хуа-Та, Люцина Винницка
Описание: По мотивам романа Станислава Лема "Астронавты". На строительстве в пустыне Гоби был найден цилиндр, на котором в виде магнитных импульсов были записаны данные о химическом составе Земли. Изучая эту находку советский ученый, профессор Арсеньев, устанавливает, что она упала на Землю из потерпевшего аварию космического корабля, летевшего на нашу планету с Венеры. Восемь ученых из разных стран решают отправиться на Венеру в советском космическом корабле "Космократор-1". Отправившись на Венеру, международный экипаж их восьми человек находит планету безжизненной, однако по-прежнему представляющей ядерную опасность. Чтобы не допустить новой глобальной катастрофы, космонавты вынуждены оставить на Венере нескольких членов команды...
Качество: DVDRip
Формат: MKV
Видео: x264, 1297 кбит/с, 712x316@762x316, 25 к/с, crf=19
Аудио 1: Русский (AC3, 1 ch, 192 Кбит/с)
Аудио 2: Русский (AC3, 2 ch, 192 Кбит/с)
Аудио 3: Немецкий (AC3, 2 ch, 192 Кбит/с)
Субтитры : Английские, итальянские, португальские


Трейлер

Релиз

Рип с немецкого неанаморфного ДВД5 - sasha20072007
Для Украины: рип и оригинальный ДВД дополнительно залиты в файлохранилище
Для удаления и добавления дорожек в mkv используйте бесплатную mkvmerge GUI 5.80

Дополнительно

слоган «You are there... on man's most incredible journey!»
Also Known As (AKA)
A holtak bolygója Hungary
Der Planet des Todes East Germany (working title)
First Spaceship on Venus USA
L'étoile du silence France
Milczaca gwiazda Poland
Molczaci Krzydla (undefined)
Planet of the Dead (undefined)
Raumschiff Venus antwortet nicht East Germany
Raumschiff landet auf der Venus Austria
Silent Star (undefined)
Sojoux 111 terrore su Venere Italy
Spaceship Venus Does Not Reply (undefined)
The Silent Star USA (DVD title)
Venus on vaiti Finland
Venus tiger Finland (Swedish title)

MediaInfo

Общее
Уникальный идентификатор : 254109277715768151272122673044881466144 (0xBF2BAAAD80B086418E0967AC624CE320)
Полное имя : F:\Безмолвная звезда 1960.x264.DVDRip.sasha20072007.mkv
Формат : Matroska
Версия формата : Version 4 / Version 2
Размер файла : 1,20 Гбайт
Продолжительность : 1 ч. 29 м.
Общий поток : 1911 Кбит/сек
Название фильма : Безмолвная звезда / Der Schweigende Stern / The Silent Star / 1960 / rip by sasha20072007 (2012-10-12)
Дата кодирования : UTC 2010-02-22 21:41:31
Программа кодирования : mkvmerge v5.8.0 ('No Sleep / Pillow') built on Sep 30 2012 10:57:14
Библиотека кодирования : libebml v1.3.0 + libmatroska v1.4.0
Attachment : Yes / Yes
Видео
Идентификатор : 1
Формат : AVC
Формат/Информация : Advanced Video Codec
Профиль формата : High@L4.1
Параметр CABAC формата : Да
Параметр ReFrames формата : 8 кадров
Идентификатор кодека : V_MPEG4/ISO/AVC
Продолжительность : 1 ч. 29 м.
Битрейт : 1297 Кбит/сек
Ширина : 712 пикселей
Высота : 316 пикселей
Соотношение сторон : 2,40:1
Соотношение сторон в оригинале : 2,40:1
Режим частоты кадров : Постоянный
Частота кадров : 25,000 кадров/сек
Цветовое пространство : YUV
Субдискретизация насыщенности : 4:2:0
Битовая глубина : 8 бит
Тип развёртки : Прогрессивная
Бит/(Пиксели*Кадры) : 0.231
Размер потока : 833 Мбайт (68%)
Библиотека кодирования : x264 core 125 r2208 d9d2288
Настройки программы : cabac=1 / ref=8 / deblock=1:-3:-2 / analyse=0x3:0x133 / me=umh / subme=10 / psy=1 / psy_rd=1.00:0.17 / mixed_ref=1 / me_range=24 / chroma_me=1 / trellis=2 / 8x8dct=1 / cqm=0 / deadzone=21,11 / fast_pskip=1 / chroma_qp_offset=-3 / threads=4 / lookahead_threads=1 / sliced_threads=0 / nr=0 / decimate=1 / interlaced=0 / bluray_compat=0 / constrained_intra=0 / bframes=10 / b_pyramid=2 / b_adapt=2 / b_bias=0 / direct=1 / weightb=1 / open_gop=0 / weightp=2 / keyint=220 / keyint_min=22 / scenecut=40 / intra_refresh=0 / rc_lookahead=60 / rc=crf / mbtree=1 / crf=19.0 / qcomp=0.60 / qpmin=0 / qpmax=69 / qpstep=4 / vbv_maxrate=17500 / vbv_bufsize=14000 / crf_max=0.0 / nal_hrd=none / ip_ratio=1.27 / aq=1:0.80
Default : Да
Forced : Нет
Аудио #1
Идентификатор : 2
Формат : AC-3
Формат/Информация : Audio Coding 3
Расширение режима : CM (complete main)
Параметр Endianness формата : Big
Идентификатор кодека : A_AC3
Продолжительность : 1 ч. 29 м.
Вид битрейта : Постоянный
Битрейт : 192 Кбит/сек
Каналы : 1 канал
Расположение каналов : Front: C
Частота : 48,0 КГц
Битовая глубина : 16 бит
Метод сжатия : С потерями
Размер потока : 123 Мбайт (10%)
Заголовок : Русский (Дубляж СССР)
Язык : Russian
Default : Да
Forced : Нет
Аудио #2
Идентификатор : 3
Формат : AC-3
Формат/Информация : Audio Coding 3
Расширение режима : CM (complete main)
Параметр Endianness формата : Big
Идентификатор кодека : A_AC3
Продолжительность : 1 ч. 29 м.
Вид битрейта : Постоянный
Битрейт : 192 Кбит/сек
Каналы : 2 канала
Расположение каналов : Front: L R
Частота : 48,0 КГц
Битовая глубина : 16 бит
Метод сжатия : С потерями
Размер потока : 123 Мбайт (10%)
Заголовок : Русский (ПМ)
Язык : Russian
Default : Нет
Forced : Нет
Аудио #3
Идентификатор : 4
Формат : AC-3
Формат/Информация : Audio Coding 3
Расширение режима : CM (complete main)
Параметр Endianness формата : Big
Идентификатор кодека : A_AC3
Продолжительность : 1 ч. 29 м.
Вид битрейта : Постоянный
Битрейт : 192 Кбит/сек
Каналы : 2 канала
Расположение каналов : Front: L R
Частота : 48,0 КГц
Битовая глубина : 16 бит
Метод сжатия : С потерями
Размер потока : 123 Мбайт (10%)
Язык : German
Default : Нет
Forced : Нет
Текст #1
Идентификатор : 5
Формат : VobSub
Идентификатор кодека : S_VOBSUB
Идентификатор кодека/Информация : The same subtitle format used on DVDs
Язык : English
Default : Нет
Forced : Нет
Текст #2
Идентификатор : 6
Формат : VobSub
Идентификатор кодека : S_VOBSUB
Идентификатор кодека/Информация : The same subtitle format used on DVDs
Язык : Italian
Default : Нет
Forced : Нет
Текст #3
Идентификатор : 7
Формат : VobSub
Идентификатор кодека : S_VOBSUB
Идентификатор кодека/Информация : The same subtitle format used on DVDs
Язык : Portuguese
Default : Нет
Forced : Нет
Меню
00:00:00.000 : :Chapter 01
00:02:37.440 : :Chapter 02
00:14:09.600 : :Chapter 03
00:26:18.720 : :Chapter 04
00:44:12.000 : :Chapter 05
00:58:55.680 : :Chapter 06
01:14:05.760 : :Chapter 07

Скриншоты



cd Рип дополнительно залит на mail.ru cd2
 

admin

Gender: Male

Longevity: 7 years 2 months

Posts: 4723

Post 12-Oct-2012 16:40 (after 19 hours)

[Quote]

Торрент перезалит
[Profile] [PM]

Guest ®

Gender: Unknown

Post 22-Oct-2014 21:29 (after 2 years)

[Quote]

http://www.mdr.de/tv/programm/der-schweigende-stern100.html
в августе показывали
 

Guest ®

Gender: Unknown

Post 22-Oct-2014 21:30 (after 1 minute)

[Quote]

Science-Fiction-Filme in der DDR
Kinofilme:
"Chemie und Liebe" (1948)
"Der schweigende Stern"(1959)
"Der Mann mit dem Objektiv" (1961)
"Signale - Ein Weltraumabenteuer" (1969)
"Eolomea" (1971)
"Im Staub der Sterne" (1975)
"Das Ding im Schloß" (1979)
"Besuch bei Van Gogh - Ein utopischer Film" (1985)
Kinderfilme:
"Abenteuer mit Blasius" (1974)
"Blumen für den Mann im Mond" (1975)
Fernsehfilme:
"Die Stunde des Skorpions" (Fernsehfilm in drei Teilen; 1968)
"Besuch aus der Vergangenheit" (1975)
Fernsehspiele:
"Der getreue Roboter" (1977)
"Professor Tarantoga und sein seltsamer Gast" (1979)
даже про многое не знаю
 

admin

Gender: Male

Longevity: 7 years 2 months

Posts: 4723

Post 22-Oct-2014 22:18 (after 48 minutes)

[Quote]

Лучше придумай кто мадярское будет переводить.
Там еще трехсерийный A feladat (The Task 1975) есть
http://cinemageddon.net/details.php?id=143179
[Profile] [PM]

admin

Gender: Male

Longevity: 7 years 2 months

Posts: 4723

Post 22-Oct-2014 22:31 (after 12 minutes)

[Quote]

Сравнение: DVDRip vs. HDTVRip-720p
HDTVRip-720p
http://kosmoaelita.com/viewtopic.php?t=1437
[Profile] [PM]
Quick Reply

Name:

            
Heads necessary to send messages to enable JavaScript
Display posts:    
Reply to topic

Current time is: 14-Nov 11:21

All times are UTC + 3



You cannot post new topics in this forum
You can reply to topics in this forum
You cannot edit your posts in this forum
You cannot delete your posts in this forum
You cannot vote in polls in this forum
You cannot attach files in this forum
You cannot download files in this forum