Нити / Threads (Мик Джексон / Mick Jackson) [1984, Великобритания, Австралия, США, Фантастика, драма, военный, постапокалипсис, BDRip-1080p] (ЛО : CheshirCa) (СТ : Jammed)

Reply to topic
DL-List and Torrent activity
Size:  11.48 GB   |    Registered:  2 years 1 month   |    Completed:  0 times

Seeder not seen: 1 year 5 months

 
   
 
 
 
Author Message

Guest

Gender: Unknown

Longevity: 50 years

Post 07-Sep-2018 08:49

[Quote]

Нити / Threads
Страна: Великобритания, Австралия, США, BBC Television Centre, Nine Network Australia, Western-World Television Inc.
Жанр: Фантастика, драма, военный, постапокалипсис
Год выпуска: 1984
Продолжительность: 01:57:11
Перевод: Любительский (одноголосый) CheshirCa по субтитрам от Jammed
Режиссер: Мик Джексон / Mick Jackson
В ролях:
Karen Meagher ... Ruth Beckett
Reece Dinsdale ... Jimmy Kemp
David Brierly ... Mr. Kemp (as David Brierley)
Rita May ... Mrs. Kemp
Nicholas Lane ... Michael Kemp
Jane Hazlegrove ... Alison Kemp
Henry Moxon ... Mr. Beckett
June Broughton ... Mrs. Beckett
Sylvia Stoker ... Granny Beckett
Harry Beety ... Clive Sutton
Ruth Holden ... Marjorie Sutton
Ashley Barker ... Bob
Michael O'Hagan ... Chief Supt. Hirst
Phil Rose ... Medical Officer
Steve Halliwell ... Information Officer
Описание: Драматический фильм, описывающий воздействие и трагические последствия ядерной войны на территории Англии. Целью Нитей было показать весь ужас войны в стране, которая оказалась втянутой в ад, после того как ядерный конфликт между Советским Союзом и Соединенными Штатами перерос в мировой.
Один из самых сильных фильмов о ядерной войне и ее последствиях. В маленьком британском городке жизнь идёт своим чередом, люди влюбляются, женятся и не особо обращают внимание на то, что происходит в мире... А зря... Злые русские уже напали на Иран, а злые американцы не дают перемещать туда ядерные ракеты.

Качество видео: BDRip-1080p
Формат: MKV
Видео: x264, 13200 кбит/с, 1440x1080, 23.976 к/с
Аудио 1: Русский (AC3, 2 ch, 192 Кбит/с)
Аудио 2: Английский (AC3, 2 ch, 640 Кбит/с)
Субтитры : Русские ()
Работа над релизом:
Видеоряд без реставрации. найден на rarbg2018.org
DVDRip vs. BDRip
Вся работа по синхрон. русской дорожки - kosmoaelita



Пример русского перевода

Дополнительно

слоган «The end of the world as we know it»
Also Known As (AKA)
(original title) Threads
Argentina (video title) Hilachas
Brazil Catástrofe Nuclear
Finland Kun maailma loppuu
Greece (video title) Threads: I imera meta to simera
Hungary Fonalak
Italy Ipotesi sopravvivenza
Norway Dommedag
Portugal (video title) A Teia
Soviet Union (Russian title) Нити

Знаете ли вы, что...

В качестве грима жертв ожогов третьей степени выступали хлопья и томатный соус.
Собирая материал для съёмок, режиссёр Мик Джексон и автор сценария Бэрри Хайнс провели неделю в специализированном центре, где людей учили выживанию в ядерном конфликте.
Сцены через 6 недель после обмена ядерными ударами снимали на территории национального парка Пик-Дистрикт.
Погода оказалась слишком хорошей для «ядерной зимы», поэтому повсюду насыпали искусственного снега, а операторы использовали фильтры, чтобы приглушить свет солнца.
Описывая психологический эффект, который оказала ядерная война на тех, кто уцелел, Мик Джексон взял за основу знания, почерпнутые в книге Магнуса Кларка «Уничтожение Британии в ядерной войне» (1982) и в разговорах с хибакуся (жертвами атомных бомбардировок Хиросимы и Нагасаки).
В фильме показан марширующий на демонстрации духовой оркестр Армии спасения. В сценарии этого не было. Оркестр возвращался под музыку с одного из выступлений и оказался на месте съёмок. Режиссёру это понравилось и прерывать съёмки он не стал.
Пуповина, которую Рут приходится перегрызать, была сделана из лакрицы.

Отзывы

Рецензия

MediaInfo

Общее
Уникальный идентификатор : 212215008082145069294167930175206396106 (0x9FA71FB608DE7A28BB580854873710CA)
Полное имя : N:\BD-DISC\Threads.1984.1080p.BluRay.X264-AMIABLE[rarbg]\Threads 1984.x264.BDRip.1080p.Rus.kosmoaelita.mkv
Формат : Matroska
Версия формата : Version 4 / Version 2
Размер файла : 11,5 Гбайт
Продолжительность : 1 ч. 57 м.
Общий поток : 14,0 Мбит/сек
Название фильма : Нити / Threads / 1984 / Релиз kosmoaelita.com
Дата кодирования : UTC 2018-09-07 01:53:01
Программа кодирования : mkvmerge v6.6.0 ('The Edge Of The In Between') built on Dec 1 2013 17:55:00
Библиотека кодирования : libebml v1.3.0 + libmatroska v1.4.1
Attachments : poster.jpg / about.txt
Видео
Идентификатор : 1
Формат : AVC
Формат/Информация : Advanced Video Codec
Профиль формата : High@L4.1
Параметр CABAC формата : Да
Параметр ReFrames формата : 5 кадров
Идентификатор кодека : V_MPEG4/ISO/AVC
Продолжительность : 1 ч. 57 м.
Битрейт : 13,2 Мбит/сек
Ширина : 1440 пикселей
Высота : 1080 пикселей
Соотношение сторон : 4:3
Режим частоты кадров : Постоянный
Частота кадров : 23,976 (24000/1001) кадра/сек
Цветовое пространство : YUV
Субдискретизация насыщенности : 4:2:0
Битовая глубина : 8 бит
Тип развёртки : Прогрессивная
Бит/(Пиксели*Кадры) : 0.353
Размер потока : 10,6 Гбайт (92%)
Заголовок : http://kosmoaelita.com/viewtopic.php?t=2531
Библиотека кодирования : x264 core 155 r2901 7d0ff22
Настройки программы : cabac=1 / ref=5 / deblock=1:-3:-3 / analyse=0x3:0x113 / me=umh / subme=8 / psy=1 / psy_rd=1.12:0.00 / mixed_ref=1 / me_range=32 / chroma_me=1 / trellis=2 / 8x8dct=1 / cqm=0 / deadzone=21,11 / fast_pskip=1 / chroma_qp_offset=-2 / threads=24 / lookahead_threads=4 / sliced_threads=0 / nr=0 / decimate=1 / interlaced=0 / bluray_compat=0 / constrained_intra=0 / bframes=3 / b_pyramid=2 / b_adapt=2 / b_bias=0 / direct=3 / weightb=1 / open_gop=0 / weightp=2 / keyint=240 / keyint_min=24 / scenecut=40 / intra_refresh=0 / rc_lookahead=50 / rc=2pass / mbtree=1 / bitrate=13180 / ratetol=1.0 / qcomp=0.60 / qpmin=0 / qpmax=69 / qpstep=4 / cplxblur=20.0 / qblur=0.5 / ip_ratio=1.40 / aq=3:0.75
Язык : English
Default : Да
Forced : Нет
Аудио #1
Идентификатор : 2
Формат : AC-3
Формат/Информация : Audio Coding 3
Расширение режима : CM (complete main)
Параметр Endianness формата : Big
Идентификатор кодека : A_AC3
Продолжительность : 1 ч. 57 м.
Вид битрейта : Постоянный
Битрейт : 192 Кбит/сек
Каналы : 2 канала
Расположение каналов : Front: L R
Частота : 48,0 КГц
Частота кадров : 31,250 кадров/сек (1536 spf)
Метод сжатия : С потерями
Размер потока : 161 Мбайт (1%)
Заголовок : Русский ЛО (CheshirCa) с VHS
Язык : Russian
Default : Да
Forced : Нет
Аудио #2
Идентификатор : 3
Формат : AC-3
Формат/Информация : Audio Coding 3
Расширение режима : CM (complete main)
Параметр Endianness формата : Big
Идентификатор кодека : A_AC3
Продолжительность : 1 ч. 57 м.
Вид битрейта : Постоянный
Битрейт : 640 Кбит/сек
Каналы : 2 канала
Расположение каналов : Front: L R
Частота : 48,0 КГц
Частота кадров : 31,250 кадров/сек (1536 spf)
Метод сжатия : С потерями
Размер потока : 536 Мбайт (5%)
Язык : English
Default : Нет
Forced : Нет
Текст #1
Идентификатор : 4
Формат : UTF-8
Идентификатор кодека : S_TEXT/UTF8
Идентификатор кодека/Информация : UTF-8 Plain Text
Заголовок : Русский (Jammed) srt
Язык : Russian
Default : Да
Forced : Нет
Текст #2
Идентификатор : 5
Формат : PGS
Режим смешивания : zlib
Идентификатор кодека : S_HDMV/PGS
Идентификатор кодека/Информация : Picture based subtitle format used on BDs/HD-DVDs
Заголовок : Русский (Jammed) PGS
Язык : Russian
Default : Нет
Forced : Нет
Текст #3
Идентификатор : 6
Формат : PGS
Режим смешивания : zlib
Идентификатор кодека : S_HDMV/PGS
Идентификатор кодека/Информация : Picture based subtitle format used on BDs/HD-DVDs
Язык : Russian
Default : Нет
Forced : Нет
Текст #4
Идентификатор : 7
Формат : UTF-8
Идентификатор кодека : S_TEXT/UTF8
Идентификатор кодека/Информация : UTF-8 Plain Text
Язык : English
Default : Нет
Forced : Нет
Текст #5
Идентификатор : 8
Формат : UTF-8
Идентификатор кодека : S_TEXT/UTF8
Идентификатор кодека/Информация : UTF-8 Plain Text
Заголовок : SDH
Язык : English
Default : Нет
Forced : Нет
Меню
00:00:00.000 : en:00:00:00.000
00:08:15.745 : en:00:08:15.745
00:23:24.820 : en:00:23:24.820
00:35:21.202 : en:00:35:21.202
00:47:38.105 : en:00:47:38.105
01:09:42.845 : en:01:09:42.845
01:26:27.224 : en:01:26:27.224
01:44:57.958 : en:01:44:57.958
01:54:43.377 : en:01:54:43.377

Пример субтитров

1
00:00:09,840 --> 00:00:13,710
В городской среде
все взаимосвязано.
2
00:00:14,590 --> 00:00:18,370
Потребности одного человека
удовлетворяются умениями других.
3
00:00:19,190 --> 00:00:22,860
Наши жизни сплетены
в единое полотно,
4
00:00:23,900 --> 00:00:28,570
...но взаимосвязи, которые делают
общество сильным, также делают
его и уязвимым.
5
00:00:43,860 --> 00:00:50,520
"Нити" - Threads, 1984г
По книге Барри Хайнса.
-----------------
1080
01:53:44,730 --> 01:53:47,900
- Ребенок. Начинается.
- Нет времени для детей.
1081
01:53:48,030 --> 01:53:50,450
Иди домой. Будь благоразумной.
1082
01:53:50,530 --> 01:53:54,750
Начинается! Начинается!
1083
01:54:30,410 --> 01:54:33,390
Вот.
1084
01:54:42,990 --> 01:54:47,240
Subtitled and translated
by Jammed, 2006г

Скриншоты
















Скринлист

Файл дополнительно залит на ОБЛАКО
Threads 1984.x264.BDRip.1080p.Rus.kosmoaelita.mkv.torrent
Torrent: Registered [ 2018-09-07 09:01 ]

Download .torrent

Download

29 KB

Status: checked
Completed: 0 times
Size: 11.48 GB
 


Last edited by on 2018-09-08 03:55; edited 2 times in total
[Profile] [PM]

Трамвай-фильм

Gender: Male

Longevity: 6 years 2 months

Posts: 1868

Location: Россия

Post 07-Sep-2018 15:56 (after 7 hours)

[Quote]

Фильм более тяжелый и более политизированный чем "На следующий день". Британия.
[Profile] [PM]

Guest

Gender: Unknown

Longevity: 50 years

Post 08-Sep-2018 03:57 (after 12 hours)

[Quote]

Сравнение DVDRip vs. BDRip

[Profile] [PM]
Display posts:    
Reply to topic

Current time is: 29-Oct 09:06

All times are UTC + 3



You cannot post new topics in this forum
You cannot reply to topics in this forum
You cannot edit your posts in this forum
You cannot delete your posts in this forum
You cannot vote in polls in this forum
You cannot attach files in this forum
You can download files in this forum