Мутант на корабле Баунти / Мутант на Баунти / Mutant on the Bounty (Роберт Торранс / Robert Torrance) [1989, США, Фантастика, комедия, VHSRip] (ПМ : VHS)

Reply to topic
DL-List and Torrent activity
Size:  1.21 GB   |    Registered:  2 years 1 month   |    Completed:  0 times

Seeder not seen: 1 year 6 months

 
   
 
 
 
Author Message

Guest

Gender: Unknown

Longevity: 50 years

Post 01-Sep-2018 02:26

[Quote]

Мутант на корабле Баунти / Mutant on the Bounty
Страна: США, Skouras Pictures, Canyon Filmworks
Жанр: Фантастика, комедия
Год выпуска: 1989
Продолжительность: 01:32:51
Перевод: Профессиональный (многоголосый) с VHS
Режиссер: Роберт Торранс / Robert Torrance
В ролях:
Kyle T. Heffner ... Max Gordon
John Roarke ... Carlson
Deborah Benson ... Justine
John Furey ... Dag
Victoria Catlin ... Babette
John Fleck ... Lizardo
Scott Williamson ... Rick
John Durbin ... Manny
Pepper Martin ... Captain Llyodes
Rob Paulsen ... Newsman
Fox Harris ... Captain Ferris
Tim Torrance ... Venturi 4 Crew
Rick Janov ... Venturi 4 Crew
Debbie Clemmer ... Venturi 4 Crew
Michael Ludin ... Dead Alien
Описание: Межпланетная исследовательская группа чуть не сталкивается с неопознанным летающим объектом который оказывается человеком потерянным в пространстве. Команда берёт его на борт, но за время его путешествия он стал ужасным мутантом.
Качество видео: VHSRip
Формат: MKV
Видео: XviD, 1446 кбит/с, 640x464, 23.976 к/с
Аудио 1: Русский ПМ (AC3, 2 ch, 192 Кбит/с)
Аудио 2: Английский (AC3, 2 ch, 192 Кбит/с)
Субтитры : Русские ()
Работа над релизом:
Видеоряд найден на синемагеддоне



Пример русского ПМ перевода

Дополнительно

Also Known As (AKA)
Hungary Űrhajótöröttek

Отзывы

помню смотрел это кино когда учился в школе) веселый треш...
----------------------------
Спасибо, смотрел давно по тв - очень понравился фильм, особенно вечно рефлексирующий робот)
------------------------------
Да, мог бы быть забавный фильм, но какой же слоупоческий монтаж! И это, увы, не единственный недостаток. Смотреть в качестве дикого космотрешняка.
Забавно, что согласно IMDB режисер до 1988-го года работал электриком

MediaInfo

Общее
Уникальный идентификатор : 232371367340141414208014065127382461293 (0xAED118F2FF8AC8BE931EC8B43E5A2B6D)
Полное имя : N:\BD-DISC\Mutant on the Bounty 1989.XviD.VHSRip.Rus.mkv
Формат : Matroska
Версия формата : Version 4 / Version 2
Размер файла : 1,21 Гбайт
Продолжительность : 1 ч. 32 м.
Общий поток : 1868 Кбит/сек
Название фильма : Mutant on the Bounty / 1989 / VHSRip
Дата кодирования : UTC 2018-03-12 04:31:08
Программа кодирования : mkvmerge v6.6.0 ('The Edge Of The In Between') built on Dec 1 2013 17:55:00
Библиотека кодирования : libebml v1.3.0 + libmatroska v1.4.1
Attachments : poster mutant-on-the-bounty.jpg
Видео
Идентификатор : 1
Формат : MPEG-4 Visual
Профиль формата : Advanced Simple@L5
Параметр BVOP формата : 1
Параметр QPel формата : Нет
Параметр GMC формата : Без точки перехода
Параметр матрицы формата : Default (MPEG)
Режим смешивания : Сжатый битовый поток
Идентификатор кодека : V_MS/VFW/FOURCC / XVID
Идентификатор кодека/Подсказка : XviD
Продолжительность : 1 ч. 32 м.
Битрейт : 1446 Кбит/сек
Ширина : 640 пикселей
Высота : 464 пикселя
Соотношение сторон : 1,379
Режим частоты кадров : Постоянный
Частота кадров : 23,976 (24000/1001) кадра/сек
Цветовое пространство : YUV
Субдискретизация насыщенности : 4:2:0
Битовая глубина : 8 бит
Тип развёртки : Прогрессивная
Метод сжатия : С потерями
Бит/(Пиксели*Кадры) : 0.203
Размер потока : 961 Мбайт (77%)
Заголовок : kosmoaelita
Библиотека кодирования : XviD 1.2.0.dev47 (UTC 2006-11-01)
Default : Да
Forced : Нет
Аудио #1
Идентификатор : 2
Формат : AC-3
Формат/Информация : Audio Coding 3
Расширение режима : CM (complete main)
Параметр Endianness формата : Big
Идентификатор кодека : A_AC3
Продолжительность : 1 ч. 32 м.
Вид битрейта : Постоянный
Битрейт : 192 Кбит/сек
Каналы : 2 канала
Расположение каналов : Front: L R
Частота : 48,0 КГц
Частота кадров : 31,250 кадров/сек (1536 spf)
Метод сжатия : С потерями
Размер потока : 128 Мбайт (10%)
Заголовок : Русский ПМ
Язык : Russian
Default : Да
Forced : Нет
Аудио #2
Идентификатор : 3
Формат : AC-3
Формат/Информация : Audio Coding 3
Расширение режима : CM (complete main)
Параметр Endianness формата : Big
Идентификатор кодека : A_AC3
Продолжительность : 1 ч. 32 м.
Вид битрейта : Постоянный
Битрейт : 192 Кбит/сек
Каналы : 2 канала
Расположение каналов : Front: L R
Частота : 48,0 КГц
Частота кадров : 31,250 кадров/сек (1536 spf)
Метод сжатия : С потерями
Размер потока : 128 Мбайт (10%)
Язык : English
Default : Нет
Forced : Нет

Скриншоты
















Скринлист

Файл дополнительно залит на ОБЛАКО
Mutant on the Bounty 1989.XviD.VHSRip.Rus.mkv.torrent
Torrent: Registered [ 2018-09-01 02:26 ]

Download .torrent

Download

24 KB

Status: checked
Completed: 0 times
Size: 1.21 GB
 
[Profile] [PM]
Display posts:    
Reply to topic

Current time is: 29-Oct 09:02

All times are UTC + 3



You cannot post new topics in this forum
You cannot reply to topics in this forum
You cannot edit your posts in this forum
You cannot delete your posts in this forum
You cannot vote in polls in this forum
You cannot attach files in this forum
You can download files in this forum