Кровавые оргии чёрных сестёр / Der Fluch der schwarzen Schwestern / Vampire Ecstasy (Джозеф Сарно / Joseph W. Sarno) [1973, Швеция, Швейцария, ФРГ, мистика,ужасы,готика,sexploitation] (ЛО : Дэн904), (Sub Rus)

Reply to topic
 
Author Message

Susanin ®

Gender: Male

Longevity: 5 years 4 months

Posts: 822

Post 25-Aug-2018 20:57

[Quote]

Кровавые оргии чёрных сестёр / Der Fluch der schwarzen Schwestern / Vampire Ecstasy
Страна: Швеция, Швейцария, ФРГ
Жанр: мистика, ужасы, готика, sexploitation
Год выпуска: 1973
Продолжительность: 01:42:49
Перевод: Любительский (одноголосый) den904 по субтитрам от Северный
Режиссер: Джозеф Сарно / Joseph W. Sarno
В ролях: Nadia Henkowa; Anke Syring; Ulrike Butz; Nico Wolferstetter; Flavia Keyt
Описание: Несколько людей разными путями оказываются в замке, который находится под присмотром пятерых женщин, которые, как оказалось, являются хранительницами духа баронессы Варги, легендарной вампирши, в своё время казнённой за то, что она попивала кровь хорошеньких девушек. Перед смертью она успела произнести проклятие, согласно которому обещала вернуться и продолжить свои злодеяния. Согласно пророчеству, помочь возродиться Варге должна кровь потомков тех людей, что её убили...
Качество видео: BDRip-1080p
Формат: MKV
Видео: x264, 9500 кбит/с, 1920x1080, 23.976 к/с, crf=21.00
Аудио 1: Русский ЛО (den904) (AC3, 2 ch, 192 Кбит/с)
Аудио 2: Английский (AC3, 2 ch, 192 Кбит/с)
Аудио 3: Английский Comment (AC3, 2 ch, 192 Кбит/с)
Субтитры : Русские ()
Работа над релизом:
Рип с BD50 с синематика - kosmoaelita

[kp][/kp]
[imdb][/imdb]
Пример русского перевода
[vkontakte][/vkontakte]

Дополнительно

Знаете ли вы, что...

Отзывы

Рецензия

Лог кодирования

MediaInfo

General
Unique ID : 60329469836466092862823722013086229399 (0x2D630882FCB76DD5A8530C0E15E4A397)
Complete name : N:\BD-DISC\Der Fluch der schwarzen Schwestern.Vampire Ecstasy.BDRip.1080p.1973.mkv.!ut
Format : Matroska
Format version : Version 4 / Version 2
File size : 7.25 GiB
Duration : 1h 42mn
Overall bit rate : 10.1 Mbps
Movie name : Vampire Ecstasy 1973 / rip from BD50 by kosmoaelita (2018-05-05), crf=21.00
Encoded date : UTC 2018-07-29 18:05:20
Writing application : mkvmerge v25.0.0 ('Prog Noir') 64-bit
Writing library : libebml v1.3.6 + libmatroska v1.4.9
Attachment : Yes / Yes
Video
ID : 1
Format : AVC
Format/Info : Advanced Video Codec
Format profile : High@L4.1
Format settings, CABAC : Yes
Format settings, ReFrames : 4 frames
Codec ID : V_MPEG4/ISO/AVC
Duration : 1h 42mn
Bit rate : 9 500 Kbps
Width : 1 920 pixels
Height : 1 080 pixels
Display aspect ratio : 16:9
Frame rate mode : Constant
Frame rate : 23.976 fps
Color space : YUV
Chroma subsampling : 4:2:0
Bit depth : 8 bits
Scan type : Progressive
Bits/(Pixel*Frame) : 0.191
Stream size : 6.69 GiB (92%)
Title : kosmoaelita
Writing library : x264 core 130 r2273 b3065e6
Encoding settings : cabac=1 / ref=4 / deblock=1:-1:-1 / analyse=0x3:0x133 / me=umh / subme=10 / psy=1 / psy_rd=0.99:0.14 / mixed_ref=1 / me_range=32 / chroma_me=1 / trellis=2 / 8x8dct=1 / cqm=0 / deadzone=21,11 / fast_pskip=1 / chroma_qp_offset=-3 / threads=6 / lookahead_threads=1 / sliced_threads=0 / nr=0 / decimate=1 / interlaced=0 / bluray_compat=0 / constrained_intra=0 / bframes=8 / b_pyramid=2 / b_adapt=2 / b_bias=0 / direct=3 / weightb=1 / open_gop=0 / weightp=2 / keyint=210 / keyint_min=21 / scenecut=40 / intra_refresh=0 / rc_lookahead=60 / rc=2pass / mbtree=1 / bitrate=9500 / ratetol=1.0 / qcomp=0.65 / qpmin=0 / qpmax=69 / qpstep=4 / cplxblur=20.0 / qblur=0.5 / ip_ratio=1.25 / aq=1:0.90
Default : Yes
Forced : No
Color primaries : BT.709
Transfer characteristics : BT.709
Matrix coefficients : BT.709
Audio #1
ID : 2
Format : AC-3
Format/Info : Audio Coding 3
Mode extension : CM (complete main)
Format settings, Endianness : Big
Codec ID : A_AC3
Duration : 1h 42mn
Bit rate mode : Constant
Bit rate : 192 Kbps
Channel(s) : 2 channels
Channel positions : Front: L R
Sampling rate : 48.0 KHz
Bit depth : 16 bits
Compression mode : Lossy
Stream size : 141 MiB (2%)
Title : ЛО den904
Language : Russian
Default : Yes
Forced : No
Audio #2
ID : 3
Format : AC-3
Format/Info : Audio Coding 3
Mode extension : CM (complete main)
Format settings, Endianness : Big
Codec ID : A_AC3
Duration : 1h 42mn
Bit rate mode : Constant
Bit rate : 192 Kbps
Channel(s) : 2 channels
Channel positions : Front: L R
Sampling rate : 48.0 KHz
Bit depth : 16 bits
Compression mode : Lossy
Stream size : 141 MiB (2%)
Language : English
Default : No
Forced : No
Audio #3
ID : 4
Format : AC-3
Format/Info : Audio Coding 3
Mode extension : CM (complete main)
Format settings, Endianness : Big
Codec ID : A_AC3
Duration : 1h 42mn
Bit rate mode : Constant
Bit rate : 192 Kbps
Channel(s) : 2 channels
Channel positions : Front: L R
Sampling rate : 48.0 KHz
Bit depth : 16 bits
Compression mode : Lossy
Stream size : 141 MiB (2%)
Title : Comment
Language : English
Default : No
Forced : No
Text
ID : 5
Format : UTF-8
Codec ID : S_TEXT/UTF8
Codec ID/Info : UTF-8 Plain Text
Language : Russian
Default : Yes
Forced : No
Menu
00:00:00.000 : en:00:00:00.000
00:01:44.021 : en:00:01:44.021
00:05:58.525 : en:00:05:58.525
00:09:28.151 : en:00:09:28.151
00:13:16.546 : en:00:13:16.546
00:20:39.989 : en:00:20:39.989
00:28:15.277 : en:00:28:15.277
00:37:12.272 : en:00:37:12.272
00:48:29.657 : en:00:48:29.657
00:59:38.742 : en:00:59:38.742
01:10:44.574 : en:01:10:44.574
01:19:50.828 : en:01:19:50.828
01:31:08.380 : en:01:31:08.380
01:36:53.725 : en:01:36:53.725
01:42:52.667 : en:01:42:52.667
01:42:59.590 : en:01:42:59.590

Пример субтитров

Скриншоты






















Скринлист

Файл дополнительно залит на ОБЛАКО
[Profile] [PM]

Susanin ®

Gender: Male

Longevity: 5 years 4 months

Posts: 822

Post 25-Aug-2018 20:59 (after 2 minutes)

[Quote]

Обложка хз почему не загружается на форуме, 2 раза пробовал. Вот прямая ссылка: http://fastpic.ru/session/2018/0825/jDpHw0oXli.html
[Profile] [PM]

Susanin ®

Gender: Male

Longevity: 5 years 4 months

Posts: 822

Post 25-Aug-2018 23:23 (after 2 hours 23 minutes)

[Quote]

интересно, кто с меня качает, если на трекере никто не отображается в скачивающих?
[Profile] [PM]

pompilius

Gender: Male

Longevity: 1 year 9 months

Posts: 150

Post 25-Aug-2018 23:58 (after 35 minutes)

[Quote]

Я качал...
[Profile] [PM]

Susanin ®

Gender: Male

Longevity: 5 years 4 months

Posts: 822

Post 26-Aug-2018 08:27 (after 8 hours)

[Quote]

pompilius, а я уже тут!
[Profile] [PM]

pompilius

Gender: Male

Longevity: 1 year 9 months

Posts: 150

Post 26-Aug-2018 09:51 (after 1 hour 23 minutes)

[Quote]

Susanin, ага, пошла по тихой закачка))
[Profile] [PM]

Трамвай-фильм

Gender: Male

Longevity: 5 years

Posts: 1493

Location: Россия

Post 26-Aug-2018 12:53 (after 3 hours)

[Quote]

Подправил оформление.
[Profile] [PM]

Susanin ®

Gender: Male

Longevity: 5 years 4 months

Posts: 822

Post 26-Aug-2018 13:40 (after 46 minutes)

[Quote]

Трамвай-фильм, лучше, наверное, по моей ссылке - там ковёр от БД.
[Profile] [PM]

Трамвай-фильм

Gender: Male

Longevity: 5 years

Posts: 1493

Location: Россия

Post 26-Aug-2018 14:13 (after 33 minutes)

[Quote]

Он слишком большой
[Profile] [PM]

Susanin ®

Gender: Male

Longevity: 5 years 4 months

Posts: 822

Post 26-Aug-2018 14:43 (after 30 minutes)

[Quote]

ааа
[Profile] [PM]

romeos

Gender: Unknown

Longevity: 6 years

Posts: 8

Post 02-Sep-2018 20:02 (after 7 days)

[Quote]

Susanin, Не могли бы вы подключиться к торренту какое-то время? 50 мегабайт остались без источников, и вы единственный источник. Прямая загрузка мертва. Вы сделали бы нам большую услугу. Приветствие.
[Profile] [PM]

pompilius

Gender: Male

Longevity: 1 year 9 months

Posts: 150

Post 02-Sep-2018 20:15 (after 12 minutes)

[Quote]

Присоединяюсь, осталось чуток и стоит((
[Profile] [PM]

Susanin ®

Gender: Male

Longevity: 5 years 4 months

Posts: 822

Post 02-Sep-2018 21:45 (after 1 hour 30 minutes)

[Quote]

Ща, 10 мин
[Profile] [PM]

pompilius

Gender: Male

Longevity: 1 year 9 months

Posts: 150

Post 02-Sep-2018 22:28 (after 42 minutes)

[Quote]

Спасибо!
[Profile] [PM]

romeos

Gender: Unknown

Longevity: 6 years

Posts: 8

Post 02-Sep-2018 22:44 (after 16 minutes)

[Quote]

Спасибо, что помогли нам заполнить его.
[Profile] [PM]

Susanin ®

Gender: Male

Longevity: 5 years 4 months

Posts: 822

Post 02-Sep-2018 23:21 (after 36 minutes)

[Quote]

завтра продолжим
[Profile] [PM]
Display posts:    
Reply to topic

Current time is: 21-Aug 02:03

All times are UTC + 3



You cannot post new topics in this forum
You cannot reply to topics in this forum
You cannot edit your posts in this forum
You cannot delete your posts in this forum
You cannot vote in polls in this forum
You cannot attach files in this forum
You cannot download files in this forum